<?xml version="1.0" standalone="no"?>
<!DOCTYPE svg PUBLIC "-//W3C//DTD SVG 1.1//EN" "http://www.w3.org/Graphics/SVG/1.1/DTD/svg11.dtd" >
<svg xmlns="http://www.w3.org/2000/svg">
<metadata>Generated by IcoMoon</metadata>
<defs>
<font id="icomoon" horiz-adv-x="1024">
<font-face units-per-em="1024" ascent="960" descent="-64" />
<missing-glyph horiz-adv-x="1024" />
<glyph unicode="&#x20;" horiz-adv-x="512" d="" />
<glyph unicode="&#xe900;" glyph-name="magnifying-glass" d="M1015.031-11.778l-248.848 248.848c66.753 76.743 107.168 176.873 107.168 286.311 0 240.901-195.945 436.619-436.619 436.619-240.901 0-436.619-195.945-436.619-436.619s195.945-436.619 436.619-436.619c109.439 0 209.568 40.415 286.311 107.168l248.848-248.848c5.903-5.903 13.85-9.082 21.57-9.082s15.667 2.952 21.57 9.082c11.807 11.807 11.807 31.333 0 43.14zM61.19 523.381c0 207.071 168.472 375.315 375.315 375.315 207.071 0 375.315-168.472 375.315-375.315s-168.245-375.542-375.315-375.542c-206.843 0-375.315 168.472-375.315 375.542z" />
<glyph unicode="&#xe901;" glyph-name="left-arrow-1" d="M11.732 419.686c0.012-0.012 0.022-0.026 0.036-0.038l209.008-208c15.658-15.582 40.984-15.524 56.57 0.136 15.584 15.658 15.524 40.984-0.134 56.568l-140.328 139.648h847.116c22.092 0 40 17.908 40 40s-17.908 40-40 40h-847.114l140.324 139.648c15.658 15.584 15.718 40.91 0.134 56.568-15.586 15.662-40.914 15.716-56.57 0.136l-209.008-208c-0.012-0.012-0.022-0.026-0.036-0.038-15.666-15.636-15.616-41.044 0.002-56.628z" />
<glyph unicode="&#xe902;" d="M896 304c-167.815 0.197-303.803 136.185-304 303.981v0.019c0 8.837-7.163 16-16 16s-16-7.163-16-16v0c-0.197-167.815-136.185-303.803-303.981-304h-0.019c-8.837 0-16-7.163-16-16s7.163-16 16-16v0c167.815-0.197 303.803-136.185 304-303.981v-0.019c0-8.837 7.163-16 16-16s16 7.163 16 16v0c0.197 167.815 136.185 303.803 303.981 304h0.019c8.837 0 16 7.163 16 16s-7.163 16-16 16v0z" />
<glyph unicode="&#xe903;" d="M992 592c-70.659 0.083-127.917 57.341-128 127.992v0.008c0 8.837-7.163 16-16 16s-16-7.163-16-16v0c-0.083-70.659-57.341-127.917-127.992-128h-0.008c-8.837 0-16-7.163-16-16s7.163-16 16-16v0c70.659-0.083 127.917-57.341 128-127.992v-0.008c0-8.837 7.163-16 16-16s16 7.163 16 16v0c0.083 70.659 57.341 127.917 127.992 128h0.008c8.837 0 16 7.163 16 16s-7.163 16-16 16v0z" />
<glyph unicode="&#xe904;" d="M624 944h-64c-0.001 0-0.003 0-0.004 0-8.834 0-15.996-7.162-15.996-15.996 0-0.001 0-0.003 0-0.004v0-40.94c-35.939-34.093-84.621-55.061-138.201-55.061-0.111 0-0.221 0-0.332 0h-261.467c-26.498-0.030-47.97-21.502-48-47.997v-0.003h-48c-17.665-0.021-31.979-14.335-32-31.998v-64.002c0.021-17.665 14.335-31.979 31.998-32h48.002c0.066-20.7 13.247-38.305 31.666-44.946l0.334-0.105v-354.949c0-0.001 0-0.003 0-0.004 0-8.834 7.162-15.996 15.996-15.996 0.001 0 0.003 0 0.004 0h16v-80c0-0.001 0-0.003 0-0.004 0-8.834 7.162-15.996 15.996-15.996 0.001 0 0.003 0 0.004 0h144c0.001 0 0.003 0 0.004 0 8.834 0 15.996 7.162 15.996 15.996 0 0.001 0 0.003 0 0.004v0 80h16c0.001 0 0.003 0 0.004 0 8.834 0 15.996 7.162 15.996 15.996 0 0.001 0 0.003 0 0.004v0 352h37.484c0.093 0 0.204 0 0.315 0 53.58 0 102.262-20.967 138.29-55.145l-0.089 0.084v-40.94c0-0.001 0-0.003 0-0.004 0-8.834 7.162-15.996 15.996-15.996 0.001 0 0.003 0 0.004 0h64c17.665 0.021 31.979 14.335 32 31.998v384.002c-0.021 17.665-14.335 31.979-31.998 32h-0.002zM96 688h-48v64h48zM304 176h-112v64h112zM336 272h-176v336h176zM544 594.437c-38.14 28.458-86.203 45.563-138.262 45.563-0.089 0-0.179 0-0.268 0h-261.47c-8.833 0.009-15.991 7.167-16 15.999v128.001c0.009 8.833 7.167 15.991 15.999 16h261.485c0.075 0 0.165 0 0.254 0 52.058 0 100.122 17.105 138.877 46.001l-0.615-0.438zM624 528h-48v384h48z" />
<glyph unicode="&#xe905;" d="M768 736h-48c-8.837 0-16-7.163-16-16s7.163-16 16-16v0h48c8.837 0 16 7.163 16 16s-7.163 16-16 16v0z" />
<glyph unicode="&#xe906;" d="M720 816h48c8.837 0 16 7.163 16 16s-7.163 16-16 16v0h-48c-8.837 0-16-7.163-16-16s7.163-16 16-16v0z" />
<glyph unicode="&#xe907;" d="M768 624h-48c-8.837 0-16-7.163-16-16s7.163-16 16-16v0h48c8.837 0 16 7.163 16 16s-7.163 16-16 16v0z" />
<glyph unicode="&#xe908;" d="M704 304v96h-32v-96c0-0.001 0-0.003 0-0.004 0-8.834-7.162-15.996-15.996-15.996-0.001 0-0.003 0-0.004 0h-96v-32h96c0.001 0 0.003 0 0.004 0 8.834 0 15.996-7.162 15.996-15.996 0-0.001 0-0.003 0-0.004v0-96h32v96c0 0.001 0 0.003 0 0.004 0 8.834 7.162 15.996 15.996 15.996 0.001 0 0.003 0 0.004 0h96v32h-96c-0.001 0-0.003 0-0.004 0-8.834 0-15.996 7.162-15.996 15.996 0 0.001 0 0.003 0 0.004v0z" />
<glyph unicode="&#xe909;" d="M993.328 447.492c-202.766 16.898-290.008 151.656-290.844 152.984-2.879 4.538-7.877 7.507-13.569 7.507-5.678 0-10.666-2.955-13.51-7.41l-0.039-0.065c-0.859-1.36-88.102-136.117-290.867-153.016-8.245-0.711-14.668-7.579-14.668-15.947 0-1.313 0.158-2.589 0.456-3.811l-0.023 0.11c3.711-15.609 93.547-383.391 312.492-474.609 1.818-0.781 3.934-1.234 6.156-1.234s4.338 0.454 6.261 1.274l-0.104-0.040c218.946 91.217 308.781 458.999 312.492 474.608 0.276 1.112 0.434 2.389 0.434 3.702 0 8.368-6.424 15.236-14.609 15.942l-0.060 0.004zM848 240c0-0.001 0-0.003 0-0.004 0-8.834-7.162-15.996-15.996-15.996-0.001 0-0.003 0-0.004 0h-96v-96c0-0.001 0-0.003 0-0.004 0-8.834-7.162-15.996-15.996-15.996-0.001 0-0.003 0-0.004 0h-64c-0.001 0-0.003 0-0.004 0-8.834 0-15.996 7.162-15.996 15.996 0 0.001 0 0.003 0 0.004v0 96h-96c-0.001 0-0.003 0-0.004 0-8.834 0-15.996 7.162-15.996 15.996 0 0.001 0 0.003 0 0.004v0 64c0 0.001 0 0.003 0 0.004 0 8.834 7.162 15.996 15.996 15.996 0.001 0 0.003 0 0.004 0h96v96c0 0.001 0 0.003 0 0.004 0 8.834 7.162 15.996 15.996 15.996 0.001 0 0.003 0 0.004 0h64c0.001 0 0.003 0 0.004 0 8.834 0 15.996-7.162 15.996-15.996 0-0.001 0-0.003 0-0.004v0-96h96c0.001 0 0.003 0 0.004 0 8.834 0 15.996-7.162 15.996-15.996 0-0.001 0-0.003 0-0.004v0z" />
<glyph unicode="&#xe90a;" d="M806.454 294.933l-7.602 10.204c-32.315 42.559-51.768 96.425-51.768 154.835 0 26.265 3.933 51.611 11.243 75.482l-0.48-1.823c5.321 17.241 8.385 37.061 8.385 57.596 0 12.32-1.103 24.382-3.215 36.093l0.184-1.229-30.297 171.863c-4.902 26.682-27.979 46.634-55.717 46.634-12.359 0-23.793-3.961-33.102-10.683l0.166 0.114-2.404 13.634c-4.906 26.679-27.981 46.627-55.716 46.627-12.359 0-23.793-3.961-33.102-10.683l0.166 0.114-2.404 13.634c-4.951 26.574-27.96 46.424-55.604 46.424-31.211 0-56.512-25.301-56.512-56.512 0-3.347 0.291-6.627 0.849-9.814l-0.049 0.339 8.977-50.911c-10.36 14.297-27.006 23.49-45.798 23.49-5.464 0-10.746-0.777-15.742-2.227l0.398 0.099 5.213 29.549c0.543 2.941 0.853 6.325 0.853 9.782 0 31.208-25.299 56.508-56.508 56.508-27.752 0-50.831-20.005-55.603-46.382l-0.052-0.344-2.404-13.642c-9.144 6.613-20.582 10.577-32.946 10.577-27.734 0-50.809-19.948-55.66-46.279l-0.053-0.348-2.404-13.634c-9.142 6.607-20.575 10.567-32.933 10.567-27.737 0-50.815-19.951-55.665-46.285l-0.053-0.348-30.297-171.863c-1.927-10.477-3.029-22.534-3.029-34.847 0-20.541 3.066-40.367 8.766-59.043l-0.376 1.431c6.807-22.065 10.728-47.43 10.728-73.71 0-15.761-1.41-31.192-4.111-46.175l0.235 1.573c-7.631-42.069-24.448-79.265-48.335-110.811l0.47 0.647-7.609-10.235c-5.959-7.941-9.543-17.962-9.543-28.82 0-14.793 6.652-28.033 17.128-36.891l0.071-0.059c58.093-51.962 134.896-84.073 219.181-85.144l0.22-0.002c44.030 0.398 86.068 8.4 125.035 22.753l-2.573-0.83c18.788 7.014 31.926 24.807 31.926 45.669 0 6.586-1.309 12.867-3.682 18.595l0.118-0.323c-22.454 58.504-15.125 143.635-10.934 177.513 0.788 5.709 4.484 10.401 9.519 12.586l0.104 0.040c4.734 2.11 9.349 4.552 13.903 7.147 4.626-2.636 9.264-5.088 13.881-7.147 5.142-2.221 8.84-6.915 9.614-12.542l0.009-0.084c4.191-33.877 11.52-119.008-10.934-177.513-2.256-5.407-3.566-11.689-3.566-18.277 0-20.859 13.134-38.65 31.584-45.555l0.336-0.11c124.707-43.456 239.76-22.274 341.87 63.208 10.547 8.922 17.198 22.166 17.198 36.963 0 10.865-3.586 20.893-9.639 28.964l0.090-0.125zM364.561 196.144c-115.070-40.080-216.74-21.267-310.855 57.552-3.526 2.995-5.749 7.432-5.749 12.389 0 3.665 1.216 7.047 3.266 9.763l-0.030-0.041 7.079 9.532c54.107-48.158 125.812-77.581 204.39-77.581 38.71 0 75.752 7.141 109.881 20.176l-2.113-0.709c0.983-2.984 2.037-5.938 3.145-8.829 0.909-1.993 1.439-4.323 1.439-6.777 0-6.969-4.273-12.939-10.342-15.435l-0.111-0.040zM389.106 449.24c-15.256-6.762-26.164-20.856-28.313-37.687l-0.025-0.237c-3.092-21.298-4.857-45.89-4.857-70.893 0-28.994 2.374-57.433 6.938-85.134l-0.41 3.017c-105.83-36.659-199.672-19.032-286.278 53.754 17.052 28.099 29.727 60.916 36.074 95.937l0.264 1.758c2.771 15.076 4.355 32.425 4.355 50.145 0 29.559-4.41 58.087-12.607 84.964l0.54-2.060c-4.475 14.494-7.052 31.156-7.052 48.419 0 10.355 0.927 20.494 2.703 30.338l-0.155-1.033 30.297 171.864c2.125 11.566 12.129 20.215 24.153 20.215 13.551 0 24.536-10.985 24.536-24.536 0-1.454-0.127-2.879-0.369-4.263l0.021 0.147-29.478-167.216c-0.155-0.836-0.244-1.798-0.244-2.781 0-8.829 7.157-15.986 15.986-15.986 7.846 0 14.371 5.652 15.727 13.106l0.015 0.098 11.192 63.497 0.039 0.203 29.478 167.216c2.135 11.559 12.136 20.198 24.155 20.198 13.554 0 24.542-10.988 24.542-24.542 0-1.371-0.112-2.716-0.328-4.025l0.019 0.143-29.525-167.426c-0.155-0.836-0.244-1.798-0.244-2.781 0-8.829 7.157-15.986 15.986-15.986 7.846 0 14.371 5.652 15.727 13.106l0.015 0.098c38.668 219.287 33.771 191.526 40.716 230.915 2.124 11.569 12.129 20.22 24.154 20.22 13.551 0 24.537-10.986 24.537-24.537 0-1.459-0.127-2.887-0.371-4.276l0.021 0.147-43.526-246.838c-0.155-0.836-0.244-1.798-0.244-2.781 0-8.829 7.157-15.986 15.986-15.986 7.846 0 14.371 5.652 15.727 13.106l0.015 0.098 29.532 167.488c2.24 11.432 12.178 19.938 24.104 19.938 13.552 0 24.539-10.986 24.539-24.539 0-1.455-0.127-2.881-0.37-4.267l0.021 0.147-37.907-214.984c-0.153-0.831-0.241-1.788-0.241-2.765 0-8.835 7.162-15.997 15.997-15.997 3.417 0 6.584 1.071 9.183 2.896l-0.051-0.034c24.929 16.96 53.5 31.775 83.799 43.036l2.777 0.904c0.875 0.316 1.885 0.499 2.937 0.499 4.908 0 8.887-3.979 8.887-8.887 0-1.436-0.34-2.792-0.945-3.992l0.023 0.051c-21.291-41.885-65.48-115.929-122.18-141.197zM445.333 447.751c38.609 35.693 70.319 78.186 93.346 125.671l1.093 2.5c2.761 5.361 4.38 11.7 4.38 18.417 0 22.592-18.314 40.906-40.906 40.906-4.748 0-9.307-0.809-13.547-2.296l0.287 0.088c-24.593-8.78-45.517-18.518-65.371-29.909l1.952 1.032 30.58 173.404 16.286-92.367c1.371-7.552 7.896-13.204 15.742-13.204 8.829 0 15.986 7.157 15.986 15.986 0 0.983-0.089 1.945-0.259 2.879l0.015-0.098-33.958 192.584c-0.222 1.239-0.349 2.666-0.349 4.122 0 13.553 10.987 24.54 24.54 24.54 12.028 0 22.034-8.653 24.135-20.073l0.023-0.151c5.108-28.975-14.799 83.943 40.709-230.907 1.371-7.552 7.896-13.204 15.742-13.204 8.829 0 15.986 7.157 15.986 15.986 0 0.983-0.089 1.945-0.259 2.879l0.015-0.098-29.477 167.207c-0.222 1.24-0.349 2.668-0.349 4.125 0 13.551 10.986 24.537 24.537 24.537 12.024 0 22.028-8.649 24.13-20.065l0.023-0.151 40.708-230.915c1.371-7.552 7.896-13.204 15.742-13.204 8.829 0 15.986 7.157 15.986 15.986 0 0.983-0.089 1.945-0.259 2.879l0.015-0.098-29.478 167.215c-0.223 1.244-0.351 2.675-0.351 4.137 0 13.551 10.985 24.536 24.536 24.536 12.031 0 22.039-8.659 24.133-20.084l0.023-0.15 30.297-171.864c1.621-8.814 2.549-18.955 2.549-29.314 0-17.26-2.574-33.919-7.36-49.613l0.315 1.203c-7.691-24.784-12.121-53.277-12.121-82.806 0-54.606 15.149-105.674 41.473-149.23l-0.725 1.293c-86.63-72.771-180.472-90.397-286.286-53.754 4.154 24.694 6.528 53.143 6.528 82.147 0 24.993-1.763 49.575-5.171 73.627l0.321-2.763c-2.239 15.991-12.054 29.288-25.639 36.309l-0.269 0.126zM778.296 253.68c-94.107-78.787-195.792-97.632-310.863-57.536-6.173 2.545-10.439 8.516-10.439 15.483 0 2.45 0.528 4.777 1.476 6.874l-0.043-0.105c1.108 2.891 2.162 5.844 3.145 8.829 32.017-12.328 69.060-19.469 107.771-19.469 78.577 0 150.282 29.424 204.697 77.854l-0.31-0.271 7.071-9.516c2.024-2.68 3.242-6.068 3.242-9.74 0-4.96-2.222-9.401-5.724-12.382l-0.023-0.019z" />
<glyph unicode="&#xe90b;" glyph-name="dollar" d="M512-64c-136.76 0-265.336 53.256-362.040 149.96s-149.96 225.28-149.96 362.040 53.258 265.334 149.96 362.040 225.28 149.96 362.040 149.96 265.336-53.256 362.040-149.96 149.96-225.28 149.96-362.040-53.258-265.334-149.96-362.040-225.28-149.96-362.040-149.96zM512 896c-247.028 0-448-200.972-448-448s200.972-448 448-448 448 200.972 448 448-200.972 448-448 448zM512 480c-44.112 0-80 35.888-80 80s35.888 80 80 80 80-35.888 80-80c0-17.672 14.326-32 32-32s32 14.328 32 32c0 68.402-47.956 125.776-112 140.372v35.628c0 17.672-14.326 32-32 32s-32-14.328-32-32v-35.628c-64.044-14.596-112-71.97-112-140.372 0-79.402 64.598-144 144-144 44.112 0 80-35.888 80-80s-35.888-80-80-80-80 35.888-80 80c0 17.672-14.326 32-32 32s-32-14.328-32-32c0-68.402 47.956-125.776 112-140.372v-35.628c0-17.672 14.326-32 32-32s32 14.328 32 32v35.628c64.044 14.596 112 71.97 112 140.372 0 79.402-64.598 144-144 144z" />
<glyph unicode="&#xe90c;" d="M624 224c-0.003 53.021-42.985 96.001-96.006 96.001-47.375 0-86.735-34.314-94.583-79.444l-0.083-0.573c-0.437 0.016-0.891 0.016-1.328 0.016-0.040 0-0.087 0-0.135 0-44.108 0-79.865-35.757-79.865-79.865 0-25.208 11.679-47.689 29.921-62.326l0.157-0.122c-8.822-14.136-14.060-31.298-14.078-49.683v-0.005c0-0.077 0-0.167 0-0.258 0-52.877 42.865-95.742 95.742-95.742 34.762 0 65.198 18.526 81.971 46.244l0.24 0.428c12.72-9.174 28.62-14.672 45.805-14.672 0.085 0 0.17 0 0.255 0h-0.013c44.161 0.054 79.947 35.839 80 79.995v0.005c-0.010 5.348-0.567 10.56-1.618 15.591l0.087-0.497c20.39 14.503 33.532 38.045 33.532 64.658 0 0.087 0 0.175 0 0.262v-0.013c-0.054 44.161-35.839 79.947-79.995 80h-0.005zM637.766 115.36c-2.032-1.002-4.423-1.588-6.951-1.588-8.837 0-16.001 7.164-16.001 16.001 0 5.802 3.088 10.882 7.709 13.688l0.071 0.040c-0.642-0.088-1.383-0.139-2.136-0.139-7.213 0-13.344 4.633-15.579 11.086l-0.035 0.116c-0.544 1.512-0.859 3.256-0.859 5.074 0 6.864 4.487 12.681 10.687 14.677l0.109 0.030c2.999 1.057 6.458 1.668 10.059 1.668 17.215 0 31.171-13.956 31.171-31.171 0-0.296-0.004-0.59-0.012-0.884l0.001 0.043c-0.016-12.597-7.384-23.469-18.043-28.558l-0.191-0.082z" />
<glyph unicode="&#xe90d;" d="M951.469 143.563c-11.202 19.457-31.88 32.345-55.568 32.345-35.293 0-63.904-28.611-63.904-63.904 0-19.095 8.375-36.234 21.652-47.944l0.070-0.060c-13.329-11.783-21.691-28.922-21.691-48.014 0-35.339 28.648-63.986 63.986-63.986s63.986 28.648 63.986 63.986c0 0.005 0 0.010 0 0.015v-0.001c0 0.672-0.016 1.344-0.032 2.016 27.839 7.351 48.031 32.307 48.031 61.98 0 32.715-24.545 59.698-56.224 63.537l-0.307 0.030z" />
<glyph unicode="&#xe90e;" d="M1008 448c-0.060 51.88-41.217 94.127-92.662 95.941l-0.166 0.005c-16.903 28.928-47.805 48.055-83.175 48.055-47.717 0-87.304-34.811-94.75-80.422l-0.075-0.554c-55.149-7.585-97.172-54.401-97.172-111.032 0-44.679 26.157-83.249 63.993-101.232l0.679-0.29c-0.425-3.142-0.669-6.775-0.672-10.465v-0.003c0-0.077 0-0.169 0-0.261 0-52.876 42.864-95.74 95.74-95.74 31.489 0 59.427 15.202 76.876 38.667l0.182 0.256c10.411-4.353 22.507-6.894 35.192-6.922h0.011c52.995 0.060 95.94 43.005 96 95.994v0.006c0 0.075 0 0.165 0 0.254 0 24.594-9.385 46.995-24.77 63.818l0.065-0.072c15.319 16.751 24.704 39.153 24.704 63.746 0 0.089 0 0.179 0 0.268v-0.014zM940.453 409.672c-2.634-1.981-5.959-3.172-9.563-3.172-8.837 0-16 7.163-16 16 0 5.233 2.512 9.879 6.396 12.798l0.041 0.030c4.018 2.838 6.623 7.446 6.672 12.664v0.008c0.002 0.084 0.003 0.183 0.003 0.281 0 8.498-6.889 15.387-15.387 15.387-0.586 0-1.164-0.033-1.733-0.096l0.070 0.006c-0.477-0.051-1.031-0.081-1.592-0.081-8.311 0-15.119 6.433-15.717 14.592l-0.003 0.052c-0.038 0.413-0.059 0.893-0.059 1.377 0 8.35 6.399 15.206 14.561 15.93l0.061 0.004c1.274 0.121 2.755 0.191 4.252 0.191 26.258 0 47.545-21.287 47.545-47.545 0-15.733-7.641-29.68-19.415-38.334l-0.132-0.093z" />
<glyph unicode="&#xe90f;" d="M496 384c23.721 0.067 44.397 13.040 55.382 32.264l0.165 0.314c2.52-0.368 5.43-0.578 8.389-0.578 0.023 0 0.045 0 0.068 0h-0.004c35.346 0 64 28.654 64 64s-28.654 64-64 64v0c-0.013 0-0.027 0-0.042 0-6.666 0-13.085-1.060-19.097-3.021l0.435 0.123c-11.585 11.672-27.636 18.898-45.374 18.898-35.303 0-63.922-28.619-63.922-63.922 0-0.027 0-0.055 0-0.082v0.004c0-0.004 0-0.009 0-0.014 0-8.66 1.775-16.904 4.982-24.39l-0.154 0.404c-3.053-7.082-4.828-15.327-4.828-23.986 0-0.005 0-0.010 0-0.014v0.001c0.036-35.332 28.668-63.964 63.997-64h0.003z" />
<glyph unicode="&#xe910;" d="M544.078 409.781c2.36-1.449 5.219-2.308 8.278-2.308 8.836 0 15.999 7.163 15.999 15.999 0 5.735-3.018 10.766-7.553 13.59l-0.068 0.039c-99.849 60.828-197.848 22.234-230.386 6.082l-50.987 51.802c15.728 32.535 54.216 132.273-5.768 233.842-2.837 4.733-7.94 7.851-13.77 7.851-8.838 0-16.002-7.164-16.002-16.002 0-2.992 0.821-5.792 2.251-8.188l-0.040 0.073c58.56-99.167 8.359-197.295 0.883-210.82l-212.336-215.71c-11.452-11.74-18.516-27.807-18.516-45.523s7.064-33.783 18.529-45.537l-0.013 0.013c11.485-11.723 27.48-18.991 45.172-18.991s33.687 7.268 45.161 18.98l0.011 0.011 212.321 215.719c13.516 7.699 109.647 58.32 206.835-0.923zM102.125 217.438c-5.682-5.823-13.607-9.434-22.375-9.434-8.761 0-16.679 3.605-22.354 9.412l-0.006 0.006c-5.806 5.955-9.387 14.102-9.387 23.086s3.581 17.131 9.393 23.093l-0.007-0.007 44.86 45.57 45.084-45.793zM169.782 286.179l-45.083 45.792 135.113 137.256 45.063-45.789z" />
<glyph unicode="&#xe911;" d="M359.109 546.75c-1.725-2.515-2.755-5.625-2.755-8.975 0-8.834 7.162-15.996 15.996-15.996 5.466 0 10.292 2.742 13.177 6.925l0.035 0.054c27.414 44.075 43.666 97.568 43.666 154.856 0 64.538-20.625 124.26-55.644 172.931l0.603-0.881c-2.933 4.135-7.702 6.801-13.094 6.801-8.839 0-16.005-7.165-16.005-16.005 0-3.447 1.090-6.64 2.944-9.253l-0.033 0.050c31.371-42.41 50.213-95.742 50.213-153.476 0-50.754-14.562-98.107-39.736-138.109l0.633 1.077z" />
<glyph unicode="&#xe912;" d="M457.25 621.523c-6.341-2.222-10.807-8.156-10.807-15.133 0-8.835 7.163-15.998 15.998-15.998 1.798 0 3.527 0.297 5.141 0.844l-0.113-0.033c18.595 5.362 39.954 8.446 62.034 8.446 66.595 0 126.636-28.056 168.95-72.993l0.11-0.118c2.9-2.918 6.916-4.724 11.353-4.724 8.839 0 16.004 7.165 16.004 16.004 0 4.348-1.734 8.291-4.548 11.176l0.003-0.003c-48.218 50.935-116.309 82.634-191.804 82.634-25.757 0-50.653-3.69-74.187-10.57l1.866 0.467z" />
<glyph unicode="&#xe913;" d="M504 715.687c-0.852-1.893-1.349-4.104-1.349-6.431 0-8.839 7.165-16.004 16.004-16.004 6.486 0 12.071 3.858 14.585 9.405l0.041 0.101c1.875 4.227 44.797 104.89-59.922 235.265-2.956 3.663-7.446 5.987-12.478 5.987-8.835 0-15.998-7.163-15.998-15.998 0-3.814 1.335-7.316 3.562-10.065l-0.023 0.030c91.719-114.187 57.156-198.625 55.578-202.289z" />
<glyph unicode="&#xe914;" d="M591.219 716.945c3.781 1.234 93.922 29.016 197.375-76.070 2.904-2.943 6.936-4.765 11.394-4.765 8.839 0 16.004 7.165 16.004 16.004 0 4.369-1.75 8.329-4.588 11.217l0.002-0.002c-118.25 120.101-225.844 85.469-230.359 83.961-6.348-2.22-10.821-8.157-10.821-15.14 0-8.838 7.164-16.002 16.002-16.002 1.784 0 3.501 0.292 5.103 0.831l-0.113-0.033z" />
<glyph unicode="&#xe915;" d="M704 480c-8.837 0-16-7.163-16-16s7.163-16 16-16v0c44.167-0.021 79.964-35.83 79.964-80 0-44.183-35.817-80-80-80-14.707 0-28.486 3.968-40.327 10.893l0.379-0.205c-2.298 1.351-5.062 2.149-8.013 2.149-7.443 0-13.7-5.079-15.494-11.96l-0.025-0.111c-12.164-48.169-72.288-58.194-85.625-39.484-2.937 4.087-7.678 6.717-13.033 6.717-7.898 0-14.46-5.722-15.766-13.247l-0.014-0.095c-6.621-38.072-39.415-66.653-78.884-66.653-44.186 0-80.006 35.82-80.006 80.006 0 34.623 21.993 64.11 52.771 75.251l0.557 0.176c6.288 2.254 10.705 8.163 10.705 15.103 0 8.84-7.166 16.007-16.007 16.007-1.92 0-3.76-0.338-5.466-0.958l0.111 0.035c-43.856-15.857-74.634-57.135-74.634-105.6 0-61.869 50.155-112.024 112.024-112.024 46.753 0 86.816 28.64 103.603 69.333l0.272 0.745c37.316-16.204 91.872 3.288 113.906 48.922 11.588-4.438 24.993-7.008 38.997-7.008 61.858 0 112.004 50.146 112.004 112.004s-50.145 112.003-112.002 112.004v0z" />
<glyph unicode="&#xe916;" d="M128 496c8.837 0 16 7.163 16 16s-7.163 16-16 16v0c-44.185 0.008-80 35.829-80 80.015 0 37.379 25.63 68.771 60.275 77.561l0.553 0.119c7.042 1.782 12.171 8.063 12.171 15.541 0 5.144-2.426 9.721-6.197 12.65l-0.036 0.027c-11.456 8.813-18.766 22.526-18.766 37.946 0 0.049 0 0.099 0 0.148v-0.008c0.154 26.537 21.702 47.99 48.261 47.99 0.265 0 0.53-0.002 0.794-0.006l-0.009 0.001c0.084-0.002 0.183-0.002 0.282-0.002 8.838 0 16.002 7.164 16.002 16.002 0 0.936-0.080 1.853-0.234 2.744l0.014-0.095c-0.715 4.018-1.124 8.643-1.124 13.363 0 44.185 35.819 80.004 80.004 80.004 23.66 0 44.922-10.271 59.569-26.597l0.066-0.075c2.942-3.277 7.193-5.329 11.922-5.329 8.837 0 16.001 7.164 16.001 16.001 0 4.108-1.548 7.854-4.092 10.687l0.013-0.015c-20.596 22.954-50.355 37.328-83.472 37.328-61.852 0-111.993-50.141-111.993-111.993 0-0.566 0.004-1.13 0.013-1.694l-0.001 0.085c-36.792-7.742-64.016-39.929-64.016-78.474 0-16.392 4.923-31.634 13.372-44.327l-0.184 0.294c-36.603-18.94-61.188-56.519-61.188-99.841 0-61.866 50.138-112.021 111.997-112.050h0.003z" />
<glyph unicode="&#xe917;" d="M986.633 159.781c-80.185 13.364-97.017 103.561-98.633 113.511v57.675l67.484-24.967c3.298-1.226 7.109-1.935 11.085-1.935 13.507 0 25.102 8.183 30.099 19.862l0.081 0.213c2.108 4.45 3.339 9.668 3.339 15.173 0 14.568-8.62 27.123-21.037 32.843l-0.224 0.093-58.828 24.484v-12.733c0-8.837-7.163-16-16-16s-16 7.163-16 16v0 48c0 8.837-7.163 16-16 16s-16-7.163-16-16v0-8.631c-87.651 35.946-83.168 35.705-96 38.649v19.591c36.78 7.703 64.006 39.866 64.006 78.387 0 44.184-35.819 80.003-80.003 80.003-44.183 0-80.001-35.817-80.003-80v0c0-8.837 7.163-16 16-16s16 7.163 16 16v0c0 26.51 21.49 48 48 48s48-21.49 48-48c0-26.51-21.49-48-48-48v0c-0.001 0-0.003 0-0.004 0-8.834 0-15.996-7.162-15.996-15.996 0-0.001 0-0.003 0-0.004v0-33.981c-12.921-2.965-9.244-3.071-96-38.648v8.629c0 8.837-7.163 16-16 16s-16-7.163-16-16v0-48c0-8.837-7.163-16-16-16s-16 7.163-16 16v0 12.738l-58.844-24.488c-12.633-5.82-21.244-18.372-21.244-32.935 0-5.512 1.233-10.735 3.439-15.41l-0.093 0.22c5.087-11.882 16.68-20.056 30.182-20.056 3.973 0 7.78 0.708 11.303 2.004l-0.227-0.073 67.484 24.967v-57.675c-1.616-9.949-18.448-100.147-98.633-113.511-7.632-1.305-13.367-7.87-13.367-15.775 0-0.002 0-0.004 0-0.007v0-176c0-0.001 0-0.003 0-0.004 0-8.834 7.162-15.996 15.996-15.996 0.001 0 0.003 0 0.004 0h480c0.001 0 0.003 0 0.004 0 8.834 0 15.996 7.162 15.996 15.996 0 0.001 0 0.003 0 0.004v0 176c0 0.002 0 0.004 0 0.006 0 7.905-5.736 14.47-13.272 15.762l-0.095 0.013zM632 282.047v60.759c113.612 40.939 108.626 42.637 116.203 39.882l107.797-39.882v-60.759c-32.657-16.539-71.197-26.227-112-26.227s-79.343 9.687-113.446 26.888l1.446-0.661z" />
<glyph unicode="&#xe918;" d="M736.006 704c-30.906-0.035-55.95-25.079-55.986-55.981v-85.959c-157.472 23.995-159.982 183.045-160.005 189.972l-0.024 0.192v79.776c-0.076 61.8-50.193 111.87-112.003 111.87s-111.927-50.069-112.003-111.862v-80.007c0-6.914-1.948-165.887-160.005-189.938v85.954c-0.054 30.882-25.101 55.895-55.99 55.895s-55.936-25.014-55.99-55.89v-264.021c0-8.837 7.164-16 16-16s16 7.164 16 16v0 264.016c0.035 13.222 10.762 23.927 23.989 23.927s23.954-10.705 23.989-23.924v-104.019c0-4.889 30.56-253.317-29.313-343.125-1.682-2.494-2.686-5.567-2.686-8.874 0-5.795 3.080-10.871 7.693-13.68l0.071-0.040c3.422-2.047 86.581-50.281 328.268-50.281 241.664 0 324.822 48.234 328.244 50.281 4.684 2.848 7.764 7.924 7.764 13.719 0 3.307-1.003 6.38-2.722 8.931l0.036-0.057c-60.38 90.575-29.313 341.393-29.313 343.125v104.016c0.035 13.222 10.762 23.927 23.989 23.927s23.954-10.705 23.989-23.924v-264.019c0-8.837 7.164-16 16-16s16 7.164 16 16v0 264.016c-0.036 30.908-25.085 55.953-55.991 55.984h-0.003zM407.988 912c44.162-0.053 79.948-35.838 80.002-79.995v-68.024c-23.944-7.404-51.47-11.667-79.993-11.667-28.53 0-56.063 4.266-81.996 12.195l1.984-0.522v68.013c0.055 44.162 35.841 79.947 79.997 80h0.005zM705.404 199.266c-32.048-12.64-120.558-39.266-297.415-39.266-176.92 0-265.43 26.64-297.4 39.25 46.784 93.482 32.615 275.982 27.016 330.963 150.587 21.215 182.202 149.561 188.685 200.787 24.5-6.964 52.637-10.969 81.71-10.969s57.21 4.004 83.891 11.491l-2.181-0.523c6.488-51.236 38.108-179.573 188.686-200.78-5.596-54.971-19.757-237.469 27.008-330.954z" />
<glyph unicode="&#xe919;" d="M503.991 592h-96.003c-0.001 0-0.003 0-0.004 0-8.834 0-15.996-7.162-15.996-15.996 0-0.001 0-0.003 0-0.004v0-80c0-35.347 28.655-64.002 64.002-64.002s64.002 28.655 64.002 64.002v0 80c0 0.001 0 0.002 0 0.004 0 8.834-7.162 15.996-15.996 15.996-0.002 0-0.003 0-0.005 0v0zM487.991 496c0-17.674-14.327-32.001-32.001-32.001s-32.001 14.327-32.001 32.001v0 64h64.002z" />
<glyph unicode="&#xe91a;" d="M639.206 238.281c-36.71 21.605-63.020 57.535-71.371 99.914l-0.155 0.945c-1.576 7.311-7.987 12.711-15.658 12.711-8.837 0-16-7.163-16-16 0-1.058 0.103-2.092 0.299-3.093l-0.017 0.101c10.595-53.12 43.182-97.068 87.656-122.705l0.878-0.467c2.092-1.074 4.565-1.703 7.184-1.703 8.837 0 16 7.164 16 16 0 6.217-3.546 11.606-8.726 14.255l-0.090 0.042z" />
<glyph unicode="&#xe91b;" d="M267.125 351.688c-0.969 0.21-2.081 0.33-3.222 0.33-7.711 0-14.14-5.491-15.59-12.776l-0.017-0.101c-8.516-43.318-34.82-79.244-70.822-100.48l-0.696-0.38c-5.25-2.697-8.78-8.075-8.78-14.277 0-8.836 7.163-15.999 15.999-15.999 2.603 0 5.060 0.621 7.232 1.724l-0.091-0.042c45.352 26.104 77.939 70.052 88.34 122.013l0.194 1.159c0.198 0.945 0.312 2.031 0.312 3.144 0 7.724-5.475 14.169-12.756 15.667l-0.103 0.018z" />
<glyph unicode="&#xe91c;" glyph-name="review" d="M245.102 403.196c-25.132 0-45.578-20.444-45.578-45.574s20.446-45.574 45.578-45.574c25.13 0 45.574 20.444 45.574 45.574s-20.446 45.574-45.574 45.574zM245.102 342.102c-8.556 0-15.518 6.962-15.518 15.516s6.962 15.516 15.518 15.516c8.556 0 15.516-6.962 15.516-15.516s-6.962-15.516-15.516-15.516zM657.448 113.372c-2.010 6.198-7.782 10.388-14.292 10.388h-89.276l-27.588 84.906c-1.988 6.122-7.858 10.386-14.294 10.386s-12.304-4.262-14.294-10.386l-27.588-84.906h-89.274c-6.51 0-12.282-4.192-14.294-10.386-2.012-6.192 0.192-12.978 5.46-16.802l72.224-52.476-27.588-84.906c-1.926-5.922 0.098-12.592 4.99-16.446 5.226-4.118 12.754-4.268 18.138-0.356l72.224 52.476 72.224-52.476c5.648-4.104 13.588-3.71 18.808 0.92 4.426 3.926 6.148 10.254 4.318 15.88l-27.588 84.906 72.224 52.476c5.274 3.824 7.478 10.61 5.466 16.802zM553.262 61.998c-5.268-3.826-7.472-10.61-5.46-16.802l16.668-51.3-43.64 31.704c-5.208 3.786-12.46 3.786-17.666 0l-43.64-31.704 16.668 51.3c2.012 6.192-0.192 12.978-5.46 16.802l-43.638 31.704h53.94c6.51 0 12.282 4.192 14.294 10.386l16.668 51.3 16.668-51.3c2.012-6.194 7.784-10.386 14.294-10.386h53.94l-43.636-31.704zM1023.262 113.376c-2.012 6.194-7.784 10.386-14.294 10.386h-89.274l-27.588 84.906c-1.988 6.122-7.858 10.386-14.294 10.386s-12.304-4.262-14.294-10.386l-27.588-84.906h-89.274c-6.51 0-12.282-4.192-14.294-10.386-2.012-6.192 0.192-12.978 5.46-16.802l72.224-52.476-27.588-84.906c-1.926-5.922 0.098-12.592 4.99-16.446 5.226-4.118 12.754-4.268 18.138-0.356l72.224 52.476 72.224-52.476c5.65-4.104 13.588-3.71 18.81 0.92 4.426 3.926 6.148 10.254 4.318 15.88l-27.588 84.906 72.224 52.476c5.274 3.826 7.478 10.612 5.464 16.804zM919.076 61.998c-5.268-3.826-7.472-10.61-5.46-16.802l16.666-51.3-43.636 31.704c-5.27 3.828-12.402 3.83-17.668 0l-43.64-31.704 16.668 51.3c2.012 6.192-0.192 12.978-5.46 16.802l-43.638 31.704h53.942c6.51 0 12.282 4.192 14.294 10.386l16.668 51.3 16.668-51.3c2.012-6.194 7.784-10.386 14.294-10.386h53.94l-43.638-31.704zM291.638 113.372c-2.014 6.198-7.786 10.388-14.296 10.388h-89.274l-27.588 84.906c-2.012 6.194-7.784 10.386-14.294 10.386s-12.282-4.192-14.294-10.386l-27.588-84.906h-89.274c-6.51 0-12.282-4.192-14.294-10.386-2.012-6.192 0.192-12.978 5.46-16.802l72.224-52.476-27.588-84.906c-2.012-6.192 0.192-12.978 5.46-16.802 5.266-3.828 12.4-3.828 17.668 0l72.224 52.476 72.224-52.476c5.65-4.104 13.588-3.71 18.808 0.92 4.426 3.926 6.148 10.254 4.318 15.88l-27.588 84.906 72.224 52.476c5.276 3.824 7.48 10.61 5.468 16.802zM187.45 61.998c-5.268-3.826-7.472-10.61-5.46-16.802l16.668-51.3-43.64 31.704c-5.208 3.786-12.46 3.786-17.668 0l-43.636-31.702 16.666 51.3c2.012 6.192-0.192 12.978-5.46 16.802l-43.638 31.704h53.94c6.51 0 12.282 4.192 14.294 10.386l16.668 51.3 16.668-51.3c2.012-6.194 7.784-10.386 14.294-10.386h53.94l-43.636-31.706zM902.334 581.804c15.524 12.492 25.474 31.646 25.474 53.076 0 37.554-30.552 68.106-68.104 68.106h-241.752c7.514 16.384 16.188 41.342 21.146 76.036 11.516 80.618-5.886 123.41-22.512 145.112-14.072 18.368-32.978 29.476-54.67 32.12-18.304 2.248-35.018-12.29-35.506-30.678-2.814-28.908-13.108-108.214-27.852-137.706-37.878-75.756-128.186-120.922-156.078-133.418-9.76 8.388-22.436 13.474-36.284 13.474h-122.188c-30.744 0-55.756-25.010-55.756-55.756v-305.462c0-30.746 25.012-55.756 55.756-55.756h122.184c16.45 0 31.256 7.166 41.468 18.534 15.862-10.014 41.462-21.17 76.816-21.17h392.766c37.554 0 68.104 30.552 68.104 68.104 0 17.214-6.42 32.958-16.992 44.962 22.616 11.090 38.22 34.356 38.22 61.194 0 17.214-6.42 32.956-16.992 44.962 22.616 11.088 38.22 34.354 38.22 61.192 0.006 21.428-9.946 40.582-25.468 53.074zM306.192 281.012h-122.184c-14.17 0-25.698 11.528-25.698 25.698v305.462c0 14.17 11.528 25.698 25.698 25.698h122.184c7.176 0 13.666-2.964 18.332-7.724v-335.16c0-1.798 0.326-3.562 0.942-5.218-4.714-5.354-11.596-8.756-19.274-8.756zM796.558 566.776h63.152c20.98 0 38.046-17.070 38.046-38.046s-17.068-38.046-38.046-38.046h-63.152c-8.3 0-15.030-6.728-15.030-15.030s6.73-15.030 15.030-15.030h41.92c20.98 0 38.046-17.070 38.046-38.046s-17.068-38.046-38.046-38.046h-53.442c-8.3 0-15.030-6.728-15.030-15.030s6.73-15.030 15.030-15.030h32.21c20.978 0 38.046-17.070 38.046-38.048s-17.068-38.046-38.046-38.046h-392.766c-31.020 0-52.050 10.392-63.468 18.194 0.608 3.292 0.942 6.678 0.942 10.142v305.458c0 5.876-0.92 11.538-2.612 16.858 35.216 16.162 125.374 63.948 166.1 145.398 20.37 40.738 30.526 144.478 30.948 148.874 0.044 0.476 0.068 0.958 0.068 1.436 0 0.512 0.196 0.948 0.582 1.288 0.54 0.474 1.060 0.414 1.234 0.392 9.408-1.148 23.022-5.648 34.452-20.564 13.122-17.128 26.656-52.298 16.616-122.582-8.51-59.574-28.688-85.636-28.814-85.798-7.878-9.628-0.784-24.548 11.63-24.548h267.55c20.98 0 38.046-17.070 38.046-38.048 0-20.98-17.068-38.046-38.046-38.046h-63.152c-8.3 0-15.030-6.728-15.030-15.030s6.73-15.026 15.032-15.026z" />
<glyph unicode="&#xe91d;" glyph-name="marketing" d="M546.901 283.827c-9.242 14.613-28.733 18.979-43.467 9.763-37.361-23.43-52.927-26.987-59.492-25.798-28.854 5.008-67.208 39.433-97.714 87.704-30.511 48.271-45.146 97.688-37.276 125.938 1.752 6.376 11.641 18.948 48.823 42.621 14.666 9.343 19.074 28.838 9.831 43.453l-55.325 87.546c-9.274 14.666-28.764 19.054-43.462 9.805l-35.393-22.368c-73.511-46.471-98.771-138.952-56.304-206.149l169.558-268.277c20.679-32.721 54.073-54.604 94.027-61.601 8.979-1.579 18.044-2.346 27.113-2.346 30.9 0 61.812 9.017 89.213 26.334l35.393 22.368c7.113 4.493 12.052 11.489 13.904 19.706s0.395 16.654-4.104 23.767zM280.329 646.635c1.646 1.042 3.487 1.536 5.303 1.536 3.308 0 6.544-1.641 8.437-4.629l55.325-87.546c2.914-4.608 1.483-10.784-3.193-13.762-8.306-5.289-15.497-10.191-21.891-14.847l-66.409 105.074zM444.426 127.683c-33.894 5.945-62.143 24.367-79.534 51.89l-169.557 268.277c-35.111 55.566-14.942 131.794 44.506 172.862l67.571-106.914c-10.755-9.758-16.965-18.369-19.229-26.62-11.426-41.032 13.083-100.876 39.828-143.192 26.745-42.326 70.28-90.134 112.202-97.414 8.447-1.486 18.898 0.425 32.335 5.947l67.582-106.931c-29.663-17.119-63.382-23.579-95.704-17.904zM585.308 177.269c-0.584-2.598-2.141-4.808-4.392-6.228l-22.428-14.174-66.41 105.076c6.95 3.773 14.463 8.163 22.807 13.393 4.677 2.946 10.873 1.589 13.804-3.020l55.325-87.535c1.421-2.252 1.883-4.924 1.294-7.512zM807.15 673.384v107.721c0 3.714-1.909 7.154-5.055 9.132s-7.080 2.188-10.415 0.558l-210.706-102.129h-114.063c-5.95 0-10.774-4.818-10.774-10.773v-148.641c0-5.955 4.824-10.774 10.774-10.774h42.947l14.061-132.681c0.584-5.481 5.203-9.638 10.716-9.638h48.802c5.95 0 10.773 4.819 10.773 10.774v125.091l197.454-96.105c1.488-0.726 3.104-1.084 4.713-1.084 1.988 0 3.971 0.547 5.712 1.641 3.146 1.968 5.061 5.419 5.061 9.132v107.721c34.080 5.243 60.344 34.511 60.344 70.033s-26.263 64.782-60.344 70.022zM477.683 667.12h94.979v-127.095h-94.979zM572.663 397.706h-28.339l-12.793 120.771h41.132zM785.604 442.831l-191.395 93.154v135.154l191.395 92.775v-321.082zM807.15 554.965v96.783c22.173-4.935 38.796-24.756 38.796-48.387 0-23.641-16.623-43.463-38.796-48.396z" />
<glyph unicode="&#xe91e;" d="M528 480c0 35.346-28.654 64-64 64s-64-28.654-64-64v0-48h-32v48c0 8.837-7.163 16-16 16s-16-7.163-16-16v0-128c0-8.837 7.163-16 16-16s16 7.163 16 16v0 48h79.992c8.837 0 16-7.163 16-16s-7.163-16-16-16v0h-47.992v-50.704c-0.004-60.959-17.004-117.947-46.521-166.483l0.802 1.42c-1.414-2.341-2.251-5.169-2.251-8.192 0-8.854 7.178-16.032 16.032-16.032 1.067 0 2.109 0.104 3.117 0.303l-0.102-0.017c6.414 0.956 13.816 1.502 21.346 1.502 42.328 0 80.627-17.248 108.253-45.099l0.010-0.010c9.564-9.564 35.591-5.712 33.297 13.25-3.798 29.574-5.972 63.799-5.985 98.529v0.017z" />
<glyph unicode="&#xe91f;" d="M992 496c-0.003 0-0.006 0-0.009 0-8.832 0-15.991-7.159-15.991-15.991 0-0.003 0-0.006 0-0.010v0.001-48h-32v48c-0.036 35.332-28.668 63.964-63.997 64h-352.003c17.673 0 32-14.327 32-32v0-315.516c0.014-82.947 11.923-163.107 34.116-238.875l-1.506 6c1.978-6.756 8.117-11.607 15.39-11.609h368c8.834 0.004 15.995 7.166 15.995 16.001 0 2.275-0.475 4.439-1.331 6.399l0.040-0.103c-29.52 66.895-46.704 144.898-46.704 226.915 0 0.228 0 0.456 0 0.683v-0.036 198.141h32v-48c0-8.837 7.163-16 16-16s16 7.163 16 16v0 128c0 0.003 0 0.006 0 0.009 0 8.832-7.159 15.991-15.991 15.991-0.003 0-0.006 0-0.010 0h0.001zM608 128c0 0.003 0 0.006 0 0.009 0 8.832 7.159 15.991 15.991 15.991 0.003 0 0.006 0 0.010 0h271.999c8.837 0 16-7.163 16-16s-7.163-16-16-16v0h-272c-0.003 0-0.006 0-0.009 0-8.832 0-15.991 7.159-15.991 15.991 0 0.003 0 0.006 0 0.010v-0.001zM912 32h-272c-8.837 0-16 7.163-16 16s7.163 16 16 16v0h272c8.837 0 16-7.163 16-16s-7.163-16-16-16v0z" />
<glyph unicode="&#xe920;" d="M785.484 297.859c18.799 17.565 30.516 42.504 30.516 70.181 0 52.997-42.963 95.96-95.96 95.96-0.014 0-0.028 0-0.042 0h-37.615c3.5 7.006 5.569 15.256 5.617 23.984v0.016c-0.020 21.618-12.271 40.371-30.205 49.712l-0.31 0.147c18.799 17.565 30.516 42.504 30.516 70.181 0 52.997-42.963 95.96-95.96 95.96-0.014 0-0.028 0-0.042 0h-37.615c3.5 7.006 5.569 15.256 5.617 23.984v0.016c-0.020 21.618-12.271 40.371-30.205 49.712l-0.31 0.147c18.799 17.565 30.516 42.504 30.516 70.181 0 52.997-42.963 95.96-95.96 95.96-0.014 0-0.028 0-0.042 0h-311.998c-0.014 0-0.030 0-0.046 0-75.085 0-135.954-60.869-135.954-135.954 0-51.73 28.891-96.711 71.417-119.69l0.72-0.356c-43.245-23.315-72.138-68.283-72.138-120s28.893-96.685 71.417-119.644l0.721-0.356c-43.247-23.335-72.138-68.316-72.138-120.046 0-75.085 60.869-135.954 135.954-135.954 0.016 0 0.032 0 0.048 0h607.998c0.001 0 0.002 0 0.004 0 30.926 0 55.996 25.070 55.996 55.996 0 21.625-12.258 40.387-30.205 49.716l-0.311 0.147zM48 808c0.069 57.41 46.59 103.932 103.994 104h312.006c35.346 0 64-28.654 64-64s-28.654-64-64-64v0h-296c-13.255 0-24 10.745-24 24s10.745 24 24 24v0h280c8.837 0 16 7.163 16 16s-7.163 16-16 16v0h-280c-30.928 0-56-25.072-56-56s25.072-56 56-56v0h336c13.255 0 24-10.745 24-24s-10.745-24-24-24v0h-352c-57.41 0.069-103.932 46.59-104 103.994v0.006zM48 568c0.069 57.41 46.59 103.932 103.994 104h440.006c35.346 0 64-28.654 64-64s-28.654-64-64-64v0h-424c-13.255 0-24 10.745-24 24s10.745 24 24 24v0h408c8.837 0 16 7.163 16 16s-7.163 16-16 16v0h-408c-30.928 0-56-25.072-56-56s25.072-56 56-56v0h464c13.255 0 24-10.745 24-24s-10.745-24-24-24v0h-480c-57.41 0.069-103.932 46.59-104 103.994v0.006zM704 384h-536c-30.928 0-56-25.072-56-56s25.072-56 56-56v0h592c13.255 0 24-10.745 24-24s-10.745-24-24-24v0h-608c-57.438 0-104 46.562-104 104s46.562 104 104 104v0h568c35.346 0 64-28.654 64-64s-28.654-64-64-64v0h-552c-13.255 0-24 10.745-24 24s10.745 24 24 24v0h536c8.837 0 16 7.163 16 16s-7.163 16-16 16v0z" />
<glyph unicode="&#xe921;" d="M1006.56 361.92c-13.553 111.932-107.979 197.819-222.465 197.819-34.92 0-67.973-7.99-97.431-22.242l1.336 0.583c-23.277-11.285-50.628-17.881-79.52-17.881s-56.244 6.596-80.631 18.364l1.111-0.483c-28.313 13.886-61.619 22.006-96.822 22.006-123.712 0-224-100.288-224-224s100.288-224 224-224c35.452 0 68.981 8.236 98.777 22.899l-1.315-0.585c22.944 11.285 49.941 17.886 78.48 17.886s55.536-6.601 79.549-18.359l-1.069 0.473c28.291-14.13 61.632-22.401 96.904-22.401 0.188 0 0.377 0 0.565 0.001h-0.029c0.019 0 0.042 0 0.065 0 123.712 0 224 100.288 224 224 0 9.134-0.547 18.14-1.609 26.987l0.104-1.067zM416 272c-44.183 0-80 35.817-80 80s35.817 80 80 80c44.183 0 80-35.817 80-80v0c0-44.183-35.817-80-80-80v0zM560 240c-26.51 0-48 21.49-48 48s21.49 48 48 48c26.51 0 48-21.49 48-48v0c0-26.51-21.49-48-48-48v0zM704 304c-26.51 0-48 21.49-48 48s21.49 48 48 48c26.51 0 48-21.49 48-48v0c0-26.51-21.49-48-48-48v0zM816 240c-26.51 0-48 21.49-48 48s21.49 48 48 48c26.51 0 48-21.49 48-48v0c0-26.51-21.49-48-48-48v0z" />
<glyph unicode="&#xe922;" d="M1006.72 209.92c-9.56-16.858-20.158-31.431-32.183-44.685l0.183 0.205c-47.088-52.582-115.185-85.516-190.975-85.516-40.658 0-79.102 9.478-113.243 26.345l1.498-0.669c-18.851 9.273-41.032 14.696-64.48 14.696s-45.629-5.424-65.358-15.085l0.878 0.388c-32.558-16.099-70.888-25.518-111.417-25.518-94.936 0-177.803 51.677-222.004 128.436l-0.659 1.241c-1.135-8.691-1.783-18.743-1.783-28.946 0-59.043 21.697-113.019 57.553-154.389l-0.249 0.294c41.204-46.040 100.81-74.88 167.151-74.88 35.651 0 69.356 8.328 99.277 23.146l-1.308-0.586c22.944 11.285 49.941 17.886 78.48 17.886s55.536-6.601 79.549-18.359l-1.069 0.473c28.497-14.097 62.047-22.344 97.523-22.344 66.239 0 125.763 28.751 166.772 74.454l0.185 0.209c35.674 41.241 57.408 95.399 57.408 154.633 0 10.069-0.628 19.991-1.847 29.729l0.119-1.162z" />
<glyph unicode="&#xe923;" d="M739.040 417.92c15.068 14.568 24.423 34.963 24.423 57.543 0 44.183-35.817 80-80 80-22.58 0-42.976-9.355-57.521-24.401l-17.942-17.942v222.88c0 44.183-35.817 80-80 80-18.1 0-34.796-6.011-48.201-16.146l0.201 0.146v64c0 44.183-35.817 80-80 80s-80-35.817-80-80v0c-13.204 9.989-29.9 16-48 16-44.183 0-80-35.817-80-80v0-64c-13.204 9.989-29.9 16-48 16-44.183 0-80-35.817-80-80v0-402.24c-27.434-7.626-47.233-32.383-47.233-61.765 0-35.077 28.218-63.562 63.192-63.995h512.041c35.015 0.433 63.233 28.919 63.233 63.995 0 29.381-19.799 54.139-46.783 61.658l-0.45 0.107v17.12zM624 208c0-17.673-14.327-32-32-32v0h-512c-17.673 0-32 14.327-32 32s14.327 32 32 32v0h512c17.673 0 32-14.327 32-32v0zM580.64 304c-2.868-2.891-4.64-6.872-4.64-11.267 0-0.033 0-0.065 0-0.098v0.005-20.64h-480v400c0 26.51 21.49 48 48 48s48-21.49 48-48v0-192c0-8.837 7.163-16 16-16s16 7.163 16 16v0 320c0 26.51 21.49 48 48 48s48-21.49 48-48v0-320c0-8.837 7.163-16 16-16s16 7.163 16 16v0 384c0 26.51 21.49 48 48 48s48-21.49 48-48v0-384c0-8.837 7.163-16 16-16s16 7.163 16 16v0 256c0 26.51 21.49 48 48 48s48-21.49 48-48v0-261.44c0-0.028 0-0.060 0-0.093 0-8.837 7.163-16 16-16 4.441 0 8.46 1.81 11.359 4.732l45.281 45.281c8.549 7.982 20.063 12.883 32.723 12.883 26.51 0 48-21.49 48-48 0-12.659-4.901-24.174-12.908-32.751l0.026 0.028z" />
<glyph unicode="&#xe924;" glyph-name="pin" d="M512 857.6c-180.973 0-327.68-146.707-327.68-327.68v0c-0.001-0.319-0.002-0.696-0.002-1.074 0-84.64 32.374-161.719 85.415-219.529l-0.216 0.239 226.918-263.987c3.779-4.4 9.348-7.17 15.565-7.17s11.786 2.77 15.542 7.142l0.023 0.027 226.918 263.987c52.825 57.572 85.199 134.65 85.199 219.291 0 0.378-0.001 0.755-0.002 1.133v-0.059c0 180.973-146.707 327.68-327.68 327.68v0zM723.354 336.179l-211.354-245.965-211.354 245.76c-46.726 50.843-75.366 118.95-75.366 193.747 0 158.351 128.369 286.72 286.72 286.72s286.72-128.369 286.72-286.72c0-74.797-28.641-142.904-75.554-193.954l0.187 0.207zM512 673.28c-79.176 0-143.36-64.184-143.36-143.36s64.184-143.36 143.36-143.36c79.176 0 143.36 64.184 143.36 143.36v0c0 79.176-64.184 143.36-143.36 143.36v0zM512 427.52c-56.554 0-102.4 45.846-102.4 102.4s45.846 102.4 102.4 102.4c56.554 0 102.4-45.846 102.4-102.4v0c0-56.554-45.846-102.4-102.4-102.4v0z" />
<glyph unicode="&#xe925;" glyph-name="mail" d="M745.109 858.721c-48.73 5.28-110.153 5.28-188.514 5.279h-89.19c-78.361 0-139.784 0-188.515-5.279-49.73-5.388-90.023-16.58-124.426-41.575-20.828-15.132-39.144-33.448-54.276-54.276-6.898-9.495-12.806-19.523-17.847-30.196-15.436-32.686-22.321-70.588-25.677-115.785-3.331-44.866-3.331-99.862-3.331-167.677v-3.14c0-78.362 0-139.785 5.279-188.514 5.388-49.732 16.58-90.022 41.575-124.429 15.132-20.826 33.448-39.142 54.276-54.272 34.403-24.998 74.697-36.19 124.426-41.579 48.73-5.278 110.152-5.278 188.511-5.278h89.199c78.357 0 139.78 0 188.51 5.278 49.732 5.389 90.022 16.58 124.429 41.579 20.826 15.13 39.142 33.446 54.272 54.272 24.998 34.406 36.19 74.697 41.579 124.429 5.278 48.73 5.278 110.153 5.278 188.51v3.174c0 68.275 0 123.564-3.405 168.613-3.426 45.396-10.47 83.424-26.266 116.206-4.894 10.16-10.586 19.73-17.186 28.809-15.13 20.828-33.446 39.144-54.272 54.276-34.406 24.995-74.697 36.187-124.429 41.575zM192.081 765.368c21.675 15.748 49.417 24.927 93.702 29.725 44.883 4.863 102.843 4.907 183.55 4.907h85.333c80.708 0 138.667-0.044 183.552-4.907 44.284-4.798 72.026-13.977 93.7-29.725 15.386-11.179 28.919-24.71 40.098-40.094l-80.947-80.948c-71.748-71.75-123.332-123.238-167.829-157.188-43.755-33.382-76.868-46.771-111.241-46.771s-67.486 13.389-111.243 46.771c-44.493 33.95-96.078 85.437-167.829 157.188l-80.948 80.948c11.182 15.385 24.714 28.915 40.101 40.094zM897.591 660.336c2.577-13.664 4.489-29.25 5.854-47.303 3.2-42.363 3.221-95.264 3.221-165.033 0-80.708-0.043-138.667-4.907-183.552-4.8-44.284-13.978-72.026-29.726-93.7-11.183-15.394-24.721-28.932-40.115-40.115-21.675-15.748-49.417-24.926-93.7-29.726-44.885-4.864-102.844-4.907-183.552-4.907h-85.333c-80.707 0-138.667 0.043-183.55 4.907-44.284 4.8-72.026 13.978-93.702 29.726-15.394 11.183-28.932 24.721-40.116 40.115-15.748 21.675-24.927 49.417-29.725 93.7-4.863 44.885-4.907 102.844-4.907 183.552 0 69.274 0.020 121.923 3.155 164.15 1.368 18.428 3.301 34.299 5.92 48.186l62.996-62.996c69.644-69.644 124.222-124.223 172.532-161.082 49.448-37.726 96.069-59.891 150.064-59.891s100.617 22.165 150.063 59.891c48.311 36.86 102.886 91.439 172.531 161.081z" />
<glyph unicode="&#xe926;" glyph-name="telephone-call" d="M961.12 236.992c-1.696 1.408-193.568 137.92-245.376 129.568-24.992-4.416-39.264-21.472-67.904-55.584-4.608-5.504-15.712-18.656-24.288-28.032-20.861 6.838-38.333 14.117-55.128 22.548l2.296-1.044c-88.522 43.761-158.511 113.75-201.126 199.715l-1.146 2.557c-7.387 14.499-14.666 31.971-20.69 50.018l-0.814 2.814c9.408 8.608 22.592 19.712 28.224 24.448 33.952 28.48 50.976 42.784 55.392 67.808 9.056 51.808-128.16 243.616-129.568 245.344-12.43 17.47-31.992 29.17-54.349 30.833l-0.243 0.015c-55.616 0-214.4-205.952-214.4-240.672 0-2.016 2.912-206.944 255.616-464 256.768-252.416 461.696-255.328 463.712-255.328 34.688 0 240.672 158.784 240.672 214.4-1.696 22.602-13.404 42.162-30.655 54.44l-0.225 0.152zM747.776 32.192c-27.776 2.368-199.936 25.056-414.976 236.288-212.256 216.096-234.368 388.544-236.576 415.264 43.536 67.721 93.299 126.182 149.84 177.283l0.752 0.669c1.28-1.28 2.976-3.2 5.152-5.696 41.597-56.154 79.734-119.817 111.441-187.107l2.927-6.909c-10.056-10.115-20.657-19.651-31.769-28.575l-0.743-0.577c-17.987-13.787-33.833-28.719-48.046-45.106l-0.338-0.398c-3.715-5.159-5.941-11.606-5.941-18.572 0-1.929 0.171-3.818 0.498-5.653l-0.029 0.194c7.513-32.052 18.123-60.231 31.839-86.533l-0.959 2.021c50.186-101.491 130.437-181.732 229.005-230.59l2.931-1.314c24.283-12.779 52.462-23.4 82.037-30.417l2.475-0.495c1.662-0.309 3.575-0.486 5.529-0.486 6.946 0 13.371 2.233 18.595 6.021l-0.092-0.064c16.843 14.609 31.828 30.518 45.099 47.81l0.565 0.766c10.048 11.968 23.456 27.936 28.544 32.448 74.347-34.585 138.153-72.771 197.49-116.656l-3.058 2.16c2.656-2.24 4.544-3.968 5.792-5.088-51.775-57.312-110.246-107.087-174.573-148.564l-3.411-2.060zM736 480h64c-0.164 141.319-114.681 255.836-255.984 256h-0.016v-64c105.995-0.109 191.891-86.005 192-191.99v-0.010zM896 480h64c-0.273 229.641-186.359 415.727-415.974 416h-0.026v-64c194.309-0.237 351.763-157.691 352-351.977v-0.023z" />
<glyph unicode="&#xe927;" d="M791.168 214.299l-129.968 64.984c-12.974 6.62-23.271 16.916-29.714 29.511l-0.176 0.38-64.984 129.969c-2.959 4.904-8.259 8.133-14.312 8.133s-11.353-3.229-14.271-8.058l-0.042-0.075-64.984-129.969c-6.614-12.981-16.916-23.28-29.519-29.714l-0.38-0.176-129.961-64.984c-5.278-2.692-8.83-8.087-8.83-14.313s3.552-11.621 8.739-14.271l0.091-0.042 129.961-64.984c12.983-6.611 23.284-16.91 29.722-29.511l0.176-0.38 64.984-129.968c2.692-5.278 8.087-8.83 14.312-8.83s11.621 3.552 14.27 8.74l0.042 0.091 64.984 129.968c6.62 12.974 16.917 23.27 29.511 29.714l0.38 0.176 129.968 64.984c5.279 2.692 8.831 8.087 8.831 14.313s-3.552 11.62-8.739 14.27l-0.091 0.042z" />
<glyph unicode="&#xe928;" d="M999.168 529.83l-107.562 53.766c-10.203 5.207-18.299 13.308-23.361 23.217l-0.139 0.299-53.781 107.562c-2.959 4.904-8.259 8.133-14.312 8.133s-11.353-3.229-14.271-8.058l-0.042-0.075-53.781-107.562c-5.201-10.208-13.297-18.308-23.202-23.377l-0.298-0.139-107.563-53.766c-5.278-2.692-8.829-8.088-8.829-14.312s3.551-11.62 8.739-14.27l0.091-0.042 107.562-53.781c10.203-5.207 18.299-13.308 23.361-23.217l0.139-0.299 53.781-107.547c2.692-5.278 8.087-8.83 14.312-8.83s11.621 3.552 14.27 8.74l0.042 0.091 53.781 107.563c5.197 10.206 13.294 18.303 23.201 23.362l0.299 0.138 107.563 53.781c5.279 2.691 8.832 8.087 8.832 14.312s-3.553 11.621-8.742 14.27l-0.091 0.042z" />
<glyph unicode="&#xe929;" d="M416 368c-35.346 0-64-28.654-64-64s28.654-64 64-64c35.346 0 64 28.654 64 64v0c-0.039 35.331-28.669 63.961-63.996 64h-0.004zM416 272c-17.673 0-32 14.327-32 32s14.327 32 32 32c17.673 0 32-14.327 32-32v0c-0.021-17.665-14.335-31.979-31.998-32h-0.002z" />
<glyph unicode="&#xe92a;" d="M848 256h-16c-0.057 32.563-19.548 60.56-47.491 73.016l-0.509 0.203v470.781c-0.090 79.493-64.507 143.91-143.991 144h-112.009c-73.84-0.107-134.661-55.709-142.992-127.328l-0.064-0.672h-16.944c-0.001 0-0.003 0-0.004 0-8.834 0-15.996-7.162-15.996-15.996 0-0.001 0-0.003 0-0.004v0-48.406c-187.29-8.998-335.763-162.918-336-351.57v-176.024c0.030-26.498 21.502-47.97 47.997-48h256.412c26.351-19.909 59.661-31.888 95.769-31.888 88.23 0 159.755 71.525 159.755 159.755 0 52.122-24.961 98.415-63.582 127.575l-0.404 0.292 0.054 0.266v368c0 0.001 0 0.003 0 0.004 0 8.834-7.162 15.996-15.996 15.996-0.001 0-0.003 0-0.004 0h-13.051c6.746 18.753 24.351 31.934 45.044 32h112.008c26.498-0.030 47.97-21.502 48-47.997v-470.784c-28.452-12.659-47.943-40.656-48-73.211v-0.007h-16c-17.664-0.024-31.976-14.336-32-31.998v-48.002c0.024-17.664 14.336-31.976 31.998-32h224.002c17.664 0.024 31.976 14.336 32 31.998v48.002c-0.024 17.664-14.336 31.976-31.998 32h-0.002zM384 784h96v-32h-96zM480 608h-80c-8.837 0-16-7.163-16-16s7.163-16 16-16v0h80v-32h-176v96h176zM48 224v104.909l85.633-32.112c6.097-2.358 10.346-8.165 10.367-14.966v-73.831h-80c-8.833 0.009-15.991 7.167-16 15.999v0.001zM544 304c0-70.692-57.308-128-128-128s-128 57.308-128 128c0 70.692 57.308 128 128 128v0c70.659-0.083 127.917-57.341 128-127.992v-0.008zM416 464c-0.090 0-0.197 0-0.304 0-88.198 0-159.696-71.498-159.696-159.696 0-36.346 12.142-69.856 32.591-96.695l-0.285 0.39h-112.306v73.828c-0.062 20.434-12.832 37.87-30.819 44.826l-0.329 0.112-96.852 36.324v36.91c0.206 176.648 143.351 319.794 319.98 320h112.020v-48h-192c-0.001 0-0.003 0-0.004 0-8.834 0-15.996-7.162-15.996-15.996 0-0.001 0-0.003 0-0.004v0-128c0-0.001 0-0.003 0-0.004 0-8.834 7.162-15.996 15.996-15.996 0.001 0 0.003 0 0.004 0h192v-61.452c-18.837 8.5-40.838 13.452-63.996 13.452-0.001 0-0.003 0-0.004 0v0zM640 880h-112c-38.502-0.052-70.638-27.249-78.298-63.477l-0.093-0.523h-32.469c8.173 54.556 54.674 95.925 110.851 96h112.008c61.825-0.077 111.923-50.175 112-111.993v-464.007h-32v464c-0.054 44.161-35.839 79.947-79.995 80h-0.005zM720 304h32c26.498-0.030 47.97-21.502 48-47.997v-0.003h-128c0.030 26.498 21.502 47.97 47.997 48h0.003zM848 176h-224v48h224z" />
<glyph unicode="&#xe92b;" glyph-name="happy-hour" d="M533.333 852.267v43.733h42.667c11.782 0 21.333 9.551 21.333 21.333s-9.551 21.333-21.333 21.333v0h-128c-11.782 0-21.333-9.551-21.333-21.333s9.551-21.333 21.333-21.333v0h42.667v-43.733c-348.16-18.347-513.493-443.093-264.747-691.2l-32.213-137.173c-1.066-4.639-1.677-9.967-1.677-15.437 0-39.706 32.188-71.893 71.893-71.893 25.317 0 47.578 13.086 60.387 32.863l0.17 0.281 59.52 94.293c38.182-13.295 82.194-20.974 128-20.974s89.817 7.679 130.819 21.819l-2.819-0.845 59.093-94.080c12.878-20.363 35.274-33.687 60.783-33.687 39.588 0 71.68 32.092 71.68 71.68 0 5.82-0.694 11.479-2.003 16.897l0.1-0.49-32 136.96c248.96 247.893 84.053 672.64-264.32 690.987zM288.213-7.68c-5.234-8.12-14.231-13.42-24.467-13.42-16.024 0-29.013 12.99-29.013 29.013 0 2.032 0.209 4.014 0.606 5.928l-0.033-0.188 26.88 114.987c23.513-18.513 50.146-34.964 78.564-48.231l2.503-1.049zM149.333 448c0 200.295 162.371 362.667 362.667 362.667s362.667-162.371 362.667-362.667c0-200.295-162.371-362.667-362.667-362.667v0c-200.295 0-362.667 162.371-362.667 362.667v0zM789.333 14.507c0.365-1.726 0.573-3.709 0.573-5.74 0-16.024-12.99-29.013-29.013-29.013-10.235 0-19.233 5.3-24.398 13.306l-0.069 0.114-55.040 87.68c30.921 14.316 57.554 30.768 81.943 49.944l-0.876-0.664zM1024 746.667c0 193.28-238.080 273.28-341.333 170.667-3.898-3.867-6.31-9.225-6.31-15.147s2.413-11.28 6.309-15.145l0.001-0.001c286.72-286.507 269.44-270.293 275.2-272.853 38.187-15.573 66.133 87.040 66.133 132.48zM732.16 898.133c146.773 77.013 306.773-83.627 229.973-229.973zM341.333 886.827c3.48 3.784 5.613 8.854 5.613 14.422 0 6.406-2.824 12.153-7.295 16.064l-0.025 0.021c-120.107 103.040-339.627 14.72-339.627-170.667-0.005-0.55-0.008-1.201-0.008-1.852 0-47.663 16.048-91.578 43.036-126.636l-0.361 0.488c21.333-21.333 21.333-7.893 298.667 268.16zM291.84 898.133l-229.973-229.973c-77.013 146.773 83.627 306.773 229.973 229.973zM512 725.333c11.782 0 21.333 9.551 21.333 21.333s-9.551 21.333-21.333 21.333v0c-11.782 0-21.333-9.551-21.333-21.333s9.551-21.333 21.333-21.333v0zM708.053 674.347c-3.876-3.876-6.274-9.232-6.274-15.147 0-11.83 9.59-21.421 21.421-21.421 5.915 0 11.27 2.398 15.147 6.274v0c3.876 3.876 6.274 9.232 6.274 15.147 0 11.83-9.59 21.421-21.421 21.421-5.915 0-11.27-2.398-15.147-6.274v0zM810.667 426.667c11.782 0 21.333 9.551 21.333 21.333s-9.551 21.333-21.333 21.333v0c-11.782 0-21.333-9.551-21.333-21.333s9.551-21.333 21.333-21.333v0zM708.053 251.947c-3.876-3.876-6.274-9.232-6.274-15.147 0-11.83 9.59-21.421 21.421-21.421 5.915 0 11.27 2.398 15.147 6.274v0c3.876 3.876 6.274 9.232 6.274 15.147 0 11.83-9.59 21.421-21.421 21.421-5.915 0-11.27-2.398-15.147-6.274v0zM512 170.667c-11.782 0-21.333-9.551-21.333-21.333s9.551-21.333 21.333-21.333v0c11.782 0 21.333 9.551 21.333 21.333s-9.551 21.333-21.333 21.333v0zM285.653 251.947c-3.876-3.876-6.274-9.232-6.274-15.147 0-11.83 9.59-21.421 21.421-21.421 5.915 0 11.27 2.398 15.147 6.274v0c3.876 3.876 6.274 9.232 6.274 15.147 0 11.83-9.59 21.421-21.421 21.421-5.915 0-11.27-2.398-15.147-6.274v0zM213.333 469.333c-11.782 0-21.333-9.551-21.333-21.333s9.551-21.333 21.333-21.333v0c11.782 0 21.333 9.551 21.333 21.333s-9.551 21.333-21.333 21.333v0zM315.947 644.053c3.876 3.876 6.274 9.232 6.274 15.147 0 11.83-9.59 21.421-21.421 21.421-5.915 0-11.27-2.398-15.147-6.274v0c-3.876-3.876-6.274-9.232-6.274-15.147 0-11.83 9.59-21.421 21.421-21.421 5.915 0 11.27 2.398 15.147 6.274v0zM475.307 469.333h-112.64c-11.782 0-21.333-9.551-21.333-21.333s9.551-21.333 21.333-21.333v0h112.64c7.432-13.176 21.337-21.927 37.287-21.927 23.564 0 42.667 19.103 42.667 42.667 0 15.949-8.751 29.855-21.714 37.176l-0.213 0.111v176.64c0 11.782-9.551 21.333-21.333 21.333s-21.333-9.551-21.333-21.333v0c0-234.667 5.76-155.947-15.36-192zM341.333 512c11.782 0 21.333 9.551 21.333 21.333v0c0 11.782 9.551 21.333 21.333 21.333s21.333-9.551 21.333-21.333v0c0-11.782 9.551-21.333 21.333-21.333v0c40.747 0 21.333 85.333-42.667 85.333s-83.627-85.333-42.667-85.333zM597.333 512c11.782 0 21.333 9.551 21.333 21.333v0c0 11.782 9.551 21.333 21.333 21.333s21.333-9.551 21.333-21.333v0c0-11.782 9.551-21.333 21.333-21.333v0c40.747 0 21.333 85.333-42.667 85.333s-83.627-85.333-42.667-85.333zM676.693 354.987c-39.417-47.622-98.539-77.734-164.693-77.734s-125.277 30.112-164.407 77.378l-0.286 0.356c-3.946 4.723-9.838 7.707-16.427 7.707-11.797 0-21.36-9.563-21.36-21.36 0-5.208 1.864-9.981 4.961-13.687l-0.028 0.034c47.299-57.086 118.208-93.177 197.547-93.177s150.248 36.092 197.204 92.752l0.342 0.425c3.069 3.673 4.933 8.445 4.933 13.653 0 11.797-9.563 21.36-21.36 21.36-6.589 0-12.481-2.983-16.399-7.673l-0.028-0.034z" />
<glyph unicode="&#xe92c;" d="M984 432c-0.166 80.229-53.839 147.877-127.222 169.167l-1.247 0.31c-4.879 48.764-45.699 86.523-95.339 86.523-28.499 0-54.091-12.446-71.638-32.199l-0.086-0.098c-2.574 0.184-5.576 0.29-8.603 0.29-70.648 0-127.92-57.272-127.92-127.92 0-16.139 2.989-31.581 8.443-45.8l-0.295 0.876c-43.020-21.213-72.094-64.759-72.094-115.095 0-38.203 16.747-72.494 43.299-95.933l0.138-0.12c-26.681-23.35-43.438-57.47-43.438-95.503 0-0.175 0-0.35 0.001-0.524v0.027c0.080-65.383 49.103-119.292 112.396-127.063l0.62-0.062c7.708-55.011 54.454-96.884 110.98-96.884 61.859 0 112.005 50.146 112.005 112.005 0 6.071-0.483 12.029-1.413 17.838l0.084-0.64c5.223-0.756 11.255-1.187 17.387-1.187 70.66 0 127.941 57.281 127.941 127.941 0 37.238-15.909 70.76-41.3 94.14l-0.090 0.082c35.236 32.283 57.28 78.471 57.391 129.809v0.020zM618.672 547.32c11.621 17.385 31.169 28.68 53.356 28.68 35.331 0 63.972-28.641 63.972-63.972 0-0.010 0-0.020 0-0.029v0.002c0-8.837-7.163-16-16-16s-16 7.163-16 16v0c0 0.006 0 0.013 0 0.020 0 17.662-14.318 31.979-31.979 31.979-11.104 0-20.886-5.659-26.619-14.251l-0.073-0.117c-2.903-4.365-7.801-7.203-13.362-7.203-8.834 0-15.995 7.161-15.995 15.995 0 3.317 1.009 6.397 2.738 8.952l-0.036-0.056zM600 272c0.101 35.289 28.731 63.857 64.034 63.857 22.136 0 41.649-11.232 53.149-28.308l0.145-0.228c1.671-2.487 2.667-5.549 2.667-8.844 0-8.834-7.161-15.995-15.995-15.995-5.539 0-10.421 2.816-13.292 7.094l-0.036 0.058c-5.82 8.666-15.583 14.292-26.66 14.292-17.649 0-31.962-14.282-32.012-31.919v-0.005c0-8.837-7.163-16-16-16s-16 7.163-16 16v0zM720 80c-0.001 0-0.003 0-0.004 0-8.834 0-15.996 7.162-15.996 15.996 0 0.001 0 0.003 0 0.004v0c-0.047 17.643-14.361 31.927-32.010 31.927-11.078 0-20.842-5.628-26.589-14.18l-0.073-0.115c-2.903-4.365-7.801-7.203-13.362-7.203-8.834 0-15.995 7.161-15.995 15.995 0 3.317 1.009 6.397 2.738 8.952l-0.036-0.056c11.647 17.299 31.158 28.528 53.291 28.528 35.3 0 63.929-28.562 64.037-63.837v-0.010c0-0.001 0-0.003 0-0.004 0-8.834-7.162-15.996-15.996-15.996-0.001 0-0.003 0-0.004 0v0zM872 224c-11.097-0.002-20.873-5.662-26.599-14.251l-0.073-0.117c-3.059-4.086-7.888-6.703-13.328-6.703s-10.269 2.616-13.297 6.66l-0.031 0.043c-5.82 8.666-15.583 14.292-26.66 14.292-17.649 0-31.962-14.282-32.012-31.919v-0.005c0-8.837-7.163-16-16-16s-16 7.163-16 16v0c0.104 35.312 28.754 63.898 64.081 63.898 15.152 0 29.076-5.259 40.046-14.051l-0.126 0.098c10.832 8.755 24.772 14.055 39.95 14.055 0.017 0 0.035 0 0.052 0h-0.003c8.837 0 16-7.163 16-16s-7.163-16-16-16v0zM888 384c-0.001 0-0.003 0-0.004 0-8.834 0-15.996 7.162-15.996 15.996 0 0.001 0 0.003 0 0.004v0c0 0.006 0 0.013 0 0.020 0 17.662-14.318 31.979-31.979 31.979-11.104 0-20.886-5.659-26.619-14.251l-0.073-0.117c-3.059-4.086-7.888-6.703-13.328-6.703s-10.269 2.616-13.297 6.66l-0.031 0.043c-5.807 8.708-15.589 14.367-26.693 14.367-17.662 0-31.979-14.318-31.979-31.979 0-0.007 0-0.014 0-0.021v0.001c0-8.837-7.163-16-16-16s-16 7.163-16 16v0c0 0.004 0 0.009 0 0.014 0 35.339 28.648 63.986 63.986 63.986 15.199 0 29.16-5.299 40.136-14.15l-0.122 0.096c10.854 8.756 24.815 14.055 40.014 14.055 35.339 0 63.986-28.648 63.986-63.986 0-0.005 0-0.010 0-0.014v0.001c0-0.001 0-0.003 0-0.004 0-8.834-7.162-15.996-15.996-15.996-0.001 0-0.003 0-0.004 0v0z" />
<glyph unicode="&#xe92d;" d="M632.013 513.828v62.172c-0.030 26.498-21.502 47.97-47.997 48h-128.003v272c-0.030 26.498-21.502 47.97-47.997 48h-64.003c-26.498-0.030-47.97-21.502-48-47.997v-272.003h-128c-26.498-0.030-47.97-21.502-48-47.997v-62.175l-79.609-350.281c-0.25-1.061-0.394-2.279-0.394-3.531 0-8.841 7.163-16.009 16.003-16.016h640.001c8.84 0.008 16.003 7.176 16.003 16.017 0 1.251-0.144 2.469-0.415 3.638l0.021-0.108zM328.013 896c0.009 8.833 7.167 15.991 15.999 16h64.001c8.833-0.009 15.991-7.167 16-15.999v-272.001h-96zM152.013 576c0.009 8.833 7.167 15.991 15.999 16h416.001c8.833-0.009 15.991-7.167 16-15.999v-48.001h-448zM581.986 176l-15.566 114.164c-1.103 7.86-7.783 13.842-15.859 13.842-8.84 0-16.006-7.166-16.006-16.006 0-0.763 0.053-1.514 0.157-2.249l-0.010 0.085 14.976-109.836h-94.373l-5.12 112.727c-0.716 8.572-7.85 15.259-16.546 15.259-0.055 0-0.11 0-0.166-0.001h0.008c-8.522-0.396-15.282-7.401-15.282-15.986 0-0.255 0.006-0.509 0.018-0.761l-0.001 0.036 5.053-111.273h-94.512l5.053 111.273c0.010 0.216 0.016 0.47 0.016 0.725 0 8.584-6.76 15.59-15.247 15.984l-0.035 0.001c-0.053 0.001-0.115 0.001-0.178 0.001-8.691 0-15.821-6.688-16.521-15.199l-0.004-0.060-5.119-112.726h-94.373l14.976 109.836c0.094 0.65 0.147 1.401 0.147 2.164 0 8.84-7.166 16.006-16.006 16.006-8.077 0-14.756-5.982-15.85-13.758l-0.010-0.085-15.566-114.164h-93.98l72.719 320h454.469l72.719-320z" />
<glyph unicode="&#xe92e;" glyph-name="badge" d="M866.303 638.783l-48.078 58.328c-6.602 8.008-10.617 17.695-11.602 28.016l-7.25 75.242c-3.766 39.094-34.875 70.203-73.968 73.968l-75.242 7.242c-10.32 0.992-20.008 5.008-28.016 11.602l-58.328 48.086c-30.305 24.976-74.297 24.976-104.601 0l-58.328-48.086c-8-6.594-17.687-10.609-28.016-11.602l-75.242-7.242c-39.094-3.766-70.195-34.875-73.968-73.968l-7.242-75.242c-0.992-10.32-5.008-20.008-11.602-28.016l-48.086-58.328c-24.976-30.305-24.976-74.297 0-104.601l48.086-58.328c6.594-8.008 10.609-17.695 11.602-28.016l7.242-75.242c3.766-39.094 34.875-70.195 73.968-73.968l45.992-4.43-109.273-261.116c-2.961-7.109-1.625-15.109 3.492-20.875 5.117-5.758 12.891-8.039 20.281-5.937l94.804 26.766c0.414 0.117 0.812-0.062 1-0.398l47.476-86.328c3.531-6.43 10.133-10.305 17.398-10.305 0.344 0 0.687 0.008 1.039 0.023 7.68 0.391 14.32 5.031 17.359 12.187l115.367 275.702c3.914 2.25 7.68 4.836 11.258 7.781l58.328 48.078c7.383 6.094 16.219 9.945 25.648 11.289l104.492-249.679-73.945 20.875c-14.062 3.961-28.789-2.203-35.844-14.992l-37.023-67.32-49.054 117.226c-3.242 7.742-12.133 11.383-19.875 8.148-7.734-3.234-11.383-12.133-8.141-19.867l57.461-137.32c3.008-7.078 9.641-11.719 17.328-12.109 0.352-0.016 0.695-0.031 1.039-0.031 7.266 0 13.867 3.883 17.398 10.312l47.469 86.312c0.195 0.352 0.602 0.516 1 0.414l94.789-26.766c7.406-2.094 15.187 0.18 20.297 5.937 5.117 5.766 6.453 13.758 3.484 20.891l-109.265 261.108 45.992 4.43c39.094 3.766 70.203 34.867 73.968 73.961l7.25 75.25c0.984 10.32 5 20 11.602 28.008l48.078 58.328c24.984 30.305 24.984 74.297 0 104.601zM417.563-20.050l-37.031 67.336c-7.047 12.781-21.789 18.945-35.844 14.976l-73.937-20.867 104.484 249.671c9.437-1.344 18.273-5.195 25.656-11.281l58.328-48.086c15.156-12.492 33.726-18.734 52.304-18.734 1.195 0 2.383 0.031 3.578 0.086zM842.874 553.494l-48.078-58.328c-10.469-12.687-16.828-28.047-18.406-44.414l-7.242-75.242c-2.375-24.656-21.992-44.273-46.648-46.648l-66.093-6.367c-0.258-0.016-0.523-0.039-0.781-0.078l-8.367-0.805c-16.375-1.578-31.734-7.937-44.422-18.398l-58.328-48.078c-19.109-15.758-46.859-15.758-65.968 0l-58.328 48.078c-12.687 10.461-28.047 16.828-44.422 18.398l-8.406 0.812c-0.234 0.031-0.461 0.047-0.695 0.062l-66.14 6.375c-24.656 2.375-44.273 21.992-46.648 46.648l-7.242 75.234c-1.578 16.375-7.937 31.734-18.406 44.422l-48.078 58.328c-15.758 19.117-15.758 46.867 0 65.976l48.078 58.328c10.469 12.687 16.828 28.047 18.406 44.422l7.242 75.242c2.375 24.656 21.992 44.273 46.648 46.648l75.242 7.242c16.375 1.578 31.734 7.937 44.422 18.398l58.328 48.078c9.555 7.875 21.273 11.82 32.984 11.82s23.43-3.937 32.984-11.82l58.328-48.078c12.687-10.461 28.047-16.828 44.422-18.398l75.242-7.242c24.656-2.375 44.273-21.992 46.648-46.648l7.242-75.242c1.578-16.375 7.937-31.734 18.406-44.422l48.078-58.328c15.75-19.117 15.75-46.859 0-65.976zM511.523 823.688c-10.141 0-20.344-0.641-30.344-1.922-8.312-1.062-14.195-8.672-13.133-16.984 1.062-8.32 8.68-14.195 16.984-13.141 8.719 1.117 17.633 1.68 26.492 1.68 114.054 0 206.843-92.789 206.843-206.843s-92.796-206.835-206.843-206.835c-114.054 0-206.843 92.789-206.843 206.843 0 81.351 47.969 155.452 122.203 188.788 7.648 3.43 11.070 12.422 7.633 20.070-3.437 7.656-12.43 11.070-20.070 7.633-85.132-38.226-140.132-123.203-140.132-216.491 0-130.804 106.414-237.21 237.21-237.21s237.21 106.406 237.21 237.21c0 130.796-106.414 237.202-237.21 237.202zM360.719 604.072c-18.101-18.101-18.101-47.562 0-65.664l66.32-66.328c8.773-8.766 20.43-13.594 32.836-13.594 12.398 0 24.062 4.828 32.836 13.594l144.773 144.781c18.101 18.109 18.101 47.562 0 65.672-18.101 18.101-47.562 18.101-65.672 0l-111.937-111.945-33.492 33.484c-18.101 18.101-47.562 18.101-65.664 0zM459.875 533.924c4.023 0 7.883 1.602 10.734 4.453l122.679 122.679c6.266 6.266 16.453 6.258 22.719 0 6.266-6.266 6.266-16.461 0-22.719l-144.773-144.781c-3.031-3.031-7.070-4.703-11.359-4.703-4.297 0-8.328 1.672-11.359 4.703l-66.328 66.32c-6.258 6.266-6.258 16.461 0 22.719 3.133 3.133 7.25 4.703 11.367 4.703 4.109 0 8.227-1.57 11.352-4.695l44.226-44.226c2.852-2.852 6.711-4.453 10.742-4.453z" />
<glyph unicode="&#xe92f;" glyph-name="engineer" d="M1024 328.531v238.938h-102.4c-8.669 29.744-20.594 58.437-35.55 85.569l72.462 72.469-168.956 168.963-72.462-72.469c-27.15 14.975-55.856 26.925-85.625 35.6v102.4h-238.938v-102.4c-29.744-8.669-58.437-20.594-85.569-35.55l-72.469 72.481-168.963-168.962 72.469-72.456c-14.988-27.162-26.925-55.875-35.6-85.644h-102.4v-238.938h102.4c8.669-29.744 20.594-58.437 35.55-85.569l-72.481-72.462 168.962-168.962 72.456 72.462c27.162-14.975 55.875-26.912 85.644-35.6v-102.4h238.938v102.4c29.744 8.669 58.437 20.594 85.569 35.55l72.462-72.462 168.962 168.956-72.462 72.469c14.975 27.144 26.912 55.863 35.6 85.619zM892.112 349.881c-9.175-35.494-23.312-69.5-42-101.031l-6.831-11.406 66.956-66.95-120.731-120.756-66.95 66.95-11.406-6.825c-31.525-18.706-65.538-32.85-101.031-42l-12.781-3.287v-94.444h-170.675v94.444l-12.781 3.313c-35.494 9.169-69.506 23.306-101.031 42l-11.406 6.831-66.95-66.981-120.756 120.762 66.95 66.95-6.825 11.4c-18.7 31.531-32.837 65.55-42 101.031l-3.287 12.794h-94.444v170.663h94.444l3.313 12.781c9.169 35.494 23.306 69.506 42 101.031l6.831 11.406-66.981 66.95 120.756 120.756 66.95-66.95 11.406 6.825c31.525 18.706 65.538 32.85 101.031 42l12.781 3.287v94.444h170.675v-94.444l12.781-3.313c35.494-9.169 69.506-23.306 101.031-42l11.406-6.831 66.95 66.981 120.756-120.756-66.95-66.95 6.825-11.406c18.706-31.525 32.85-65.538 42-101.031l3.312-12.781h94.419v-170.675h-94.444zM512 738.131c-160.15 0.088-290.050-129.681-290.131-289.825-0.056-114.044 66.725-217.525 170.662-264.444v-0.394l10.563-4.35h0.106l23.462-9.506v1.163c27.638-8.575 56.406-12.925 85.338-12.906 5.762 0 11.438 0.187 17.069 0.512v-0.731l19.125 2.406 15.006 1.813v0.762c157.675 28.181 262.65 178.838 234.475 336.506-24.731 138.362-145.119 239.081-285.675 238.994zM426.662 206.625v168.806l-5.694 5.125c-56.163 50.231-60.963 136.481-10.725 192.638 25.894 28.956 62.912 45.494 101.756 45.469 5.006 0 10.012-0.262 15-0.794l-79.362-79.419 15.162-105.588 105.588-15.15 79.35 79.356c0.525-4.956 0.794-9.944 0.794-14.938-0.306-63.619-44.225-118.706-106.169-133.2l-13.294-3.006v-153.394c-34.731-2.231-69.563 2.563-102.406 14.094zM563.2 197.069v122.181c70.862 22.744 119.062 88.469 119.462 162.881 0.075 18.55-2.95 36.981-8.937 54.531l-8.887 25.838-108.463-108.506-63.387 9.075-9.125 63.437 108.506 108.525-25.844 8.875c-17.556 5.969-35.987 8.975-54.525 8.894-94.212 0.044-170.619-76.294-170.662-170.5-0.025-45.869 18.425-89.812 51.194-121.919v-138.806c-124.956 66.013-172.75 220.806-106.75 345.769s220.813 172.75 345.769 106.75c124.956-66 172.756-220.806 106.75-345.769-35.788-67.737-100.038-115.887-175.1-131.206z" />
<glyph unicode="&#xe930;" d="M624.039 272h-224.032c-26.51 0-48-21.49-48-48s21.49-48 48-48v0h224.032c26.51 0 48 21.49 48 48s-21.49 48-48 48v0z" />
<glyph unicode="&#xe931;" d="M480.019 368c-38.503-0.053-70.639-27.249-78.302-63.477l-0.093-0.523h156.788c-7.755 36.751-39.891 63.947-78.388 64h-0.006z" />
<glyph unicode="&#xe932;" d="M688.048 376c0-30.928-25.072-56-56-56s-56 25.072-56 56c0 30.928 25.072 56 56 56s56-25.072 56-56z" />
<glyph unicode="&#xe933;" d="M592.032 496c0-26.51-21.49-48-48-48s-48 21.49-48 48c0 26.51 21.49 48 48 48s48-21.49 48-48z" />
<glyph unicode="&#xe934;" d="M1001.86-19.328c-0.344 0.281-35.005 28.64-50.413 117.516-8.633 47.951-42.15 86.402-86.446 101.931l-0.926 0.283v23.598c-0.040 14.106-6.197 26.766-15.956 35.475l-0.047 0.041v364.484c0 17.676-14.329 32.005-32.005 32.005s-32.005-14.329-32.005-32.005v0-364.484c-9.806-8.749-15.962-21.41-16.002-35.509v-26.205c-45.66-18.895-78.156-61.095-82.816-111.368l-0.039-0.527c-0.6-5.425-0.943-11.715-0.943-18.085 0-34.874 10.264-67.351 27.936-94.575l-0.411 0.676c8.742-13.279 23.58-21.922 40.437-21.922 0.008 0 0.015 0 0.023 0h79.823c8.81 0.062 15.929 7.219 15.929 16.038 0 5.151-2.429 9.736-6.204 12.67l-0.036 0.027c-21.434 19.007-34.874 46.615-34.874 77.363 0 3.553 0.18 7.065 0.53 10.526l-0.036-0.435c30.083-48.047 79.95-116.188 120.705-116.188h64.009c8.794 0.099 15.885 7.251 15.885 16.059 0 5.1-2.378 9.645-6.085 12.587l-0.033 0.025zM832.070 207.377c-4.234 0.395-8.514 0.623-12.846 0.623-6.804-0.052-13.436-0.603-19.914-1.619l0.755 0.098v17.521c0.029 8.816 7.182 15.952 16.002 15.952s15.974-7.136 16.002-15.949v-0.003z" />
<glyph unicode="&#xe935;" d="M387.399 144l11.593-162.266c1.263-16.648 15.056-29.684 31.905-29.734h162.247c16.85 0.049 30.641 13.077 31.904 29.61l0.007 0.109 11.593 162.281c-122.535-0.269-164.060-0.14-249.248 0z" />
<glyph unicode="&#xe936;" d="M640 576h-6.724c-10.665 24.042-32.159 41.586-58.119 46.576l-0.501 0.080c-7.151 37.434-39.626 65.344-78.621 65.344-12.209 0-23.78-2.736-34.131-7.629l0.487 0.207c-16.59 14.452-38.425 23.263-62.317 23.263-10.342 0-20.299-1.651-29.621-4.704l0.672 0.191c-14.436 22.199-39.122 36.672-67.187 36.672-17.161 0-33.058-5.411-46.078-14.621l0.25 0.168c-14.178 9.068-31.47 14.453-50.020 14.453-0.031 0-0.063 0-0.094 0h0.005c-51.879-0.066-94.125-41.218-95.948-92.662l-0.005-0.167c-24.341-14.242-41.62-38.301-46.472-66.604l-0.080-0.567h-1.494c-26.498-0.030-47.97-21.502-48-47.997v-64.003c0.076-21.236 13.96-39.21 33.139-45.416l0.339-0.095 23.976-203.849c4.859-39.965 38.573-70.626 79.452-70.64h398.189c40.88 0.014 74.594 30.675 79.415 70.255l0.038 0.385 1.355 11.518c2.325-1.335 5.108-2.133 8.075-2.158h0.007c0.006 0 0.013 0 0.020 0 8.837 0 16 7.163 16 16 0 6.23-3.56 11.628-8.757 14.271l-0.091 0.042-11.28 5.64 18.646 158.536c19.517 6.301 33.401 24.275 33.478 45.503v64.009c-0.030 26.498-21.502 47.97-47.997 48h-0.003zM134.922 618.875c5.764 2.512 9.721 8.16 9.721 14.732 0 0.441-0.018 0.877-0.053 1.309l0.004-0.057c-0.17 1.74-0.267 3.761-0.267 5.804 0 34.98 28.357 63.337 63.337 63.337 15.646 0 29.968-5.673 41.019-15.075l-0.090 0.075c2.749-2.296 6.32-3.69 10.218-3.69 4.411 0 8.405 1.786 11.298 4.674v0c8.658 8.66 20.619 14.016 33.832 14.016 20.324 0 37.687-12.673 44.619-30.548l0.111-0.326c2.368-6.055 8.158-10.266 14.931-10.266 2.679 0 5.205 0.659 7.423 1.824l-0.088-0.042c8.495 4.595 18.597 7.296 29.329 7.296 18.96 0 35.952-8.43 47.431-21.746l0.068-0.081c2.953-3.317 7.235-5.396 12.003-5.396 3.385 0 6.525 1.048 9.113 2.837l-0.054-0.035c7.608 5.31 17.048 8.484 27.231 8.484 26.477 0 47.941-21.464 47.941-47.941 0-0.021 0-0.041 0-0.062v0.003c0-0.003 0-0.006 0-0.009 0-8.832 7.159-15.991 15.991-15.991 0.003 0 0.006 0 0.010 0h-0.001c14.176-0.007 26.912-6.168 35.683-15.955l0.040-0.045h-497.555c5.089 19.447 18.621 34.988 36.343 42.715l0.411 0.16zM598.766 218.391c-2.908-23.984-23.14-42.386-47.671-42.391h-398.188c-24.532 0.004-44.764 18.407-47.649 42.16l-0.023 0.231-23.25 197.609h175.461c7.781-45.669 47.061-80 94.359-80 15.087 0 29.358 3.493 42.048 9.714l-0.564-0.25 208.181-104.091zM391.584 382.099l-32.428 16.214c-2.094 1.076-4.568 1.706-7.19 1.706-8.838 0-16.002-7.164-16.002-16.002 0-6.242 3.574-11.65 8.788-14.288l0.091-0.042 2.416-1.208c-27.525 2.104-50.019 21.396-56.886 47.075l-0.101 0.446h123.456c-3.684-13.803-11.496-25.43-22.014-33.802l-0.13-0.1zM422.236 366.772c12.333 13.211 20.987 30.005 24.236 48.656l0.082 0.572h175.461l-16.569-140.832zM656 464c-0.006-8.834-7.166-15.994-15.999-16h-576.001c-8.834 0.006-15.994 7.166-16 15.999v64.001c0.006 8.834 7.166 15.994 15.999 16h576.001c8.834-0.006 15.994-7.166 16-15.999v-0.001z" />
<glyph unicode="&#xe937;" d="M128 752c35.346 0 64 28.654 64 64s-28.654 64-64 64c-35.346 0-64-28.654-64-64v0c0.036-35.332 28.668-63.964 63.997-64h0.003zM128 848c17.673 0 32-14.327 32-32s-14.327-32-32-32c-17.673 0-32 14.327-32 32v0c0.024 17.664 14.336 31.976 31.998 32h0.002z" />
<glyph unicode="&#xe938;" d="M384 784c44.183 0 80 35.817 80 80s-35.817 80-80 80c-44.183 0-80-35.817-80-80v0c0.054-44.161 35.839-79.947 79.995-80h0.005zM384 912c26.51 0 48-21.49 48-48s-21.49-48-48-48c-26.51 0-48 21.49-48 48v0c0.030 26.498 21.502 47.97 47.997 48h0.003z" />
<glyph unicode="&#xe939;" d="M576 704c35.346 0 64 28.654 64 64s-28.654 64-64 64c-35.346 0-64-28.654-64-64v0c0.036-35.332 28.668-63.964 63.997-64h0.003zM576 800c17.673 0 32-14.327 32-32s-14.327-32-32-32c-17.673 0-32 14.327-32 32v0c0.024 17.664 14.336 31.976 31.998 32h0.002z" />
<glyph unicode="&#xe93a;" d="M696 944c-30.928 0-56-25.072-56-56s25.072-56 56-56c30.928 0 56 25.072 56 56v0c-0.039 30.912-25.088 55.961-55.996 56h-0.004zM696 864c-13.255 0-24 10.745-24 24s10.745 24 24 24c13.255 0 24-10.745 24-24v0c-0.015-13.249-10.751-23.985-23.999-24h-0.001z" />
<glyph unicode="&#xe93b;" d="M704 576c-167.895 0-304-136.105-304-304s136.105-304 304-304c167.895 0 304 136.105 304 304v0c-0.197 167.815-136.185 303.803-303.981 304h-0.019zM644.688 491.312l48 48c2.895 2.896 6.894 4.688 11.312 4.688s8.418-1.791 11.312-4.688l48-48c2.938-2.902 4.757-6.93 4.757-11.383 0-8.836-7.163-15.998-15.998-15.998-4.453 0-8.482 1.82-11.382 4.756l-36.69 36.689-36.688-36.688c-2.888-2.853-6.859-4.615-11.241-4.615-8.836 0-15.998 7.163-15.998 15.998 0 4.383 1.762 8.353 4.617 11.243l-0.002-0.002zM720 416v-144c0-8.837-7.163-16-16-16s-16 7.163-16 16v0 144c0 8.837 7.163 16 16 16s16-7.163 16-16v0zM507.312 235.312c2.956-2.905 4.789-6.946 4.789-11.414 0-8.836-7.163-15.998-15.998-15.998-4.469 0-8.51 1.832-11.412 4.786l-48.002 48.002c-2.896 2.895-4.688 6.894-4.688 11.312s1.791 8.418 4.688 11.312l48 48c2.888 2.853 6.859 4.615 11.241 4.615 8.836 0 15.998-7.163 15.998-15.998 0-4.383-1.762-8.353-4.617-11.243l-36.685-36.686zM763.312 52.687l-48-48c-2.895-2.896-6.894-4.688-11.312-4.688s-8.418 1.791-11.312 4.688l-48 48c-2.895 2.895-4.686 6.895-4.686 11.312 0 8.836 7.163 15.998 15.998 15.998 4.418 0 8.417-1.791 11.312-4.686v0l36.688-36.687 36.688 36.688c2.888 2.853 6.859 4.615 11.241 4.615 8.836 0 15.998-7.163 15.998-15.998 0-4.383-1.762-8.353-4.617-11.243l0.002 0.002zM704 144c-0.015 0-0.032 0-0.049 0-70.665 0-127.95 57.285-127.95 127.95 0 43.302 21.511 81.58 54.429 104.731l0.407 0.271c2.549 1.793 5.718 2.865 9.136 2.865 8.837 0 16.001-7.164 16.001-16.001 0-5.395-2.67-10.166-6.76-13.064l-0.050-0.033c-25.016-17.572-41.164-46.299-41.164-78.797 0-53.019 42.981-96 96-96s96 42.981 96 96c0 32.498-16.148 61.225-40.858 78.593l-0.306 0.204c-4.14 2.932-6.81 7.703-6.81 13.098 0 8.837 7.164 16.001 16.001 16.001 3.419 0 6.587-1.072 9.188-2.899l-0.051 0.034c33.325-23.423 54.836-61.701 54.836-105.003 0-70.665-57.285-127.95-127.95-127.95-0.017 0-0.035 0-0.052 0h0.003zM923.312 212.688c-2.884-2.834-6.843-4.584-11.21-4.584-8.836 0-15.998 7.163-15.998 15.998 0 4.367 1.75 8.325 4.586 11.212l36.685 36.686-36.688 36.688c-2.853 2.888-4.615 6.859-4.615 11.241 0 8.836 7.163 15.998 15.998 15.998 4.383 0 8.353-1.762 11.243-4.617l47.998-47.998c2.896-2.895 4.688-6.894 4.688-11.312s-1.791-8.418-4.688-11.312v0z" />
<glyph unicode="&#xe93c;" d="M240.003 576h351.995c0.001 0 0.003 0 0.004 0 8.834 0 15.996 7.162 15.996 15.996 0 0.001 0 0.003 0 0.004v0 96c0 0.001 0 0.003 0 0.004 0 8.834-7.162 15.996-15.996 15.996-0.001 0-0.003 0-0.004 0h-351.994c-0.001 0-0.003 0-0.004 0-8.834 0-15.996-7.162-15.996-15.996 0-0.001 0-0.003 0-0.004v0-96c0-0.001 0-0.003 0-0.004 0-8.834 7.162-15.996 15.996-15.996 0.001 0 0.003 0 0.004 0v0zM256.003 672h319.995v-64h-319.996z" />
<glyph unicode="&#xe93d;" d="M416 464c0 0-0.001 0-0.001 0-35.346 0-64-28.654-64-64s28.654-64 64-64c35.346 0 64 28.654 64 64v0c-0.039 35.33-28.669 63.961-63.995 64h-0.004zM416 368c-17.673 0-32 14.327-32 32s14.327 32 32 32c17.673 0 32-14.327 32-32v0c-0.021-17.665-14.335-31.979-31.998-32h-0.002z" />
<glyph unicode="&#xe93e;" d="M256.002 464c0 0-0.001 0-0.001 0-35.346 0-64-28.654-64-64s28.654-64 64-64c35.346 0 64 28.654 64 64v0c-0.039 35.33-28.669 63.961-63.995 64h-0.004zM256.002 368c-17.673 0-32 14.327-32 32s14.327 32 32 32c17.673 0 32-14.327 32-32v0c-0.021-17.665-14.335-31.979-31.998-32h-0.002z" />
<glyph unicode="&#xe93f;" d="M575.998 464c0 0-0.001 0-0.001 0-35.346 0-64-28.654-64-64s28.654-64 64-64c35.346 0 64 28.654 64 64v0c-0.039 35.33-28.669 63.961-63.995 64h-0.004zM575.998 368c-17.673 0-32 14.327-32 32s14.327 32 32 32c17.673 0 32-14.327 32-32v0c-0.021-17.665-14.335-31.979-31.998-32h-0.002z" />
<glyph unicode="&#xe940;" d="M709.749 256.871q13.214 14.304 25.023 29.85l58.066-29.033c2.085-1.065 4.548-1.689 7.156-1.689 8.838 0 16.002 7.164 16.002 16.002 0 6.229-3.559 11.627-8.755 14.271l-0.091 0.042-53.934 26.968c39.261 60.799 62.596 135.083 62.596 214.816 0 220.86-179.043 399.903-399.903 399.903s-399.903-179.043-399.903-399.903c0-0.034 0-0.068 0-0.102v0.005c0-0.095 0-0.207 0-0.32 0-79.619 23.409-153.772 63.719-215.949l-0.941 1.549-53.934-26.968c-5.286-2.686-8.846-8.083-8.846-14.312 0-8.838 7.164-16.002 16.002-16.002 2.609 0 5.071 0.624 7.247 1.731l-0.091-0.042 58.066 29.032q11.789-15.536 25.023-29.85l-101.557-101.558c-2.865-2.89-4.636-6.869-4.636-11.262 0-8.835 7.163-15.998 15.998-15.998 4.393 0 8.372 1.77 11.263 4.637l101.557 101.558q14.304-13.214 29.849-25.024l-29.033-58.066c-1.093-2.108-1.735-4.602-1.735-7.246 0-8.838 7.164-16.002 16.002-16.002 6.264 0 11.688 3.599 14.315 8.843l0.042 0.092 26.967 53.936c60.734-39.372 134.992-62.779 214.716-62.779s153.983 23.407 216.276 63.725l-1.559-0.945 26.967-53.936c2.669-5.336 8.093-8.935 14.357-8.935 8.838 0 16.002 7.164 16.002 16.002 0 2.644-0.641 5.138-1.777 7.335l0.042-0.089-29.033 58.066q15.536 11.789 29.849 25.024l101.558-101.559c2.89-2.865 6.869-4.636 11.262-4.636 8.835 0 15.998 7.163 15.998 15.998 0 4.393-1.771 8.372-4.637 11.264l0.001-0.001zM416 896c196.601-0.24 357.114-154.424 367.483-348.472l0.039-0.923c-18.794 5.605-32.945 21.011-36.654 40.144l-0.053 0.329c-22.002 118.833-103.923 214.428-212.624 255.405l-2.319 0.767c-4.828 1.809-10.408 2.856-16.232 2.856-18.484 0-34.505-10.545-42.376-25.947l-0.125-0.269c-10.493-21.41-32.127-35.891-57.144-35.891s-46.651 14.481-56.978 35.518l-0.166 0.373c-7.996 15.67-24.017 26.213-42.5 26.213-5.822 0-11.399-1.046-16.555-2.961l0.329 0.107c-111.019-41.742-192.938-137.339-214.613-254.094l-0.32-2.077c-3.768-19.461-17.921-34.866-36.345-40.378l-0.37-0.095c10.409 194.971 170.921 349.154 367.499 349.395h0.024zM272.002 189.369v66.631c0.009 8.833 7.167 15.991 15.999 16h255.997c8.833-0.009 15.991-7.167 16-15.999v-66.632c-42.478-18.566-91.976-29.369-143.998-29.369s-101.52 10.803-146.373 30.288l2.376-0.919zM591.997 204.902v51.098c-0.030 26.498-21.502 47.97-47.997 48h-255.998c-26.497-0.030-47.97-21.502-47.999-47.997v-51.101c-110.999 61.442-186.169 175.706-191.608 307.961l-0.024 0.731c34.734 6.358 61.748 33.224 68.246 67.362l0.084 0.528c19.904 107.501 94.019 193.98 192.36 231.041l2.098 0.694c1.554 0.573 3.348 0.904 5.22 0.904 5.904 0 11.038-3.297 13.661-8.15l0.041-0.082c15.805-32.152 48.322-53.891 85.917-53.891s70.111 21.738 85.667 53.33l0.249 0.56c2.663 4.937 7.798 8.235 13.702 8.235 1.874 0 3.671-0.332 5.335-0.941l-0.108 0.035c100.439-37.756 174.555-124.233 194.176-229.855l0.29-1.88c6.576-34.666 33.589-61.533 67.803-67.811l0.519-0.079c-5.462-132.987-80.633-247.251-189.745-307.733l-1.887-0.96z" />
<glyph unicode="&#xe941;" glyph-name="calendar" d="M240.633 461.015h316.589c11.278 0 20.425 9.147 20.425 20.425s-9.147 20.425-20.425 20.425h-316.589c-11.285 0-20.425-9.147-20.425-20.425s9.14-20.425 20.425-20.425zM430.172 369.102h-189.539c-11.285 0-20.425-9.147-20.425-20.425s9.14-20.425 20.425-20.425h189.539c11.278 0 20.425 9.147 20.425 20.425s-9.147 20.425-20.425 20.425zM784.752 414.452v352.939c-0.013 56.399-45.733 102.106-102.125 102.125h-83.743v39.012c0 11.285-9.14 20.425-20.425 20.425-11.278 0-20.425-9.14-20.425-20.425v-39.012h-277.781v39.012c0 11.285-9.14 20.425-20.425 20.425-11.278 0-20.425-9.14-20.425-20.425v-39.012h-83.743c-56.392-0.019-102.1-45.727-102.125-102.125v-553.316c0.026-56.392 45.733-102.1 102.125-102.125h378.075c39.299-100.657 144.693-159.086 250.884-139.095 106.191 19.985 183.13 112.734 183.149 220.795 0.198 109.683-78.847 201.187-183.015 220.802zM155.869 828.667h83.743v-39.012c0-11.278 9.14-20.425 20.425-20.425 11.278 0 20.425 9.147 20.425 20.425v39.012h277.781v-39.012c0-11.278 9.14-20.425 20.425-20.425 11.278 0 20.425 9.147 20.425 20.425v39.012h83.743c33.797-0.096 61.173-27.472 61.275-61.275v-49.429h-649.518v49.429c0.026 33.835 27.446 61.25 61.275 61.275zM155.869 152.8c-33.804 0.096-61.18 27.478-61.275 61.275v463.241h649.307v-258.99h-0.613c-66.707-0.102-129.929-29.789-172.605-81.068-42.682-51.273-60.401-118.842-48.395-184.458zM743.289 9.825c-101.519 0-183.826 82.3-183.826 183.826s82.307 183.826 183.826 183.826c101.525 0 183.826-82.3 183.826-183.826-0.153-101.462-82.364-183.673-183.826-183.826zM837.857 266.976l-121.319-115.81-62.711 62.909c-7.947 7.953-20.84 7.953-28.793 0-7.959-7.953-7.959-20.846 0-28.799l76.996-77.003c3.83-3.855 9.064-5.993 14.508-5.923 5.272-0.045 10.34 2.011 14.087 5.725l135.623 129.699c3.906 3.734 6.166 8.859 6.287 14.266 0.109 5.406-1.928 10.634-5.674 14.527-7.953 7.979-20.827 8.164-29.004 0.409z" />
<glyph unicode="&#xe942;" glyph-name="art" d="M295.991 627.997c-44.11 0-80.001-35.891-80.001-80.001s35.891-80.001 80.001-80.001c44.118 0 80.001 35.891 80.001 80.001s-35.883 80.001-80.001 80.001zM295.991 507.996c-22.055 0-40 17.945-40 40s17.945 40 40 40c22.063 0 40-17.945 40-40s-17.938-40-40-40zM595.993 647.998c0 44.11-35.883 80.001-80.001 80.001-44.11 0-80.001-35.891-80.001-80.001s35.891-80.001 80.001-80.001c44.118 0 80.001 35.891 80.001 80.001zM475.992 647.998c0 22.055 17.945 40 40 40 22.063 0 40-17.945 40-40s-17.938-40-40-40c-22.055 0-40 17.945-40 40zM155.989 307.995c0-44.11 35.891-80.001 80.001-80.001 44.118 0 80.001 35.891 80.001 80.001s-35.883 80.001-80.001 80.001c-44.11 0-80.001-35.891-80.001-80.001zM235.99 347.995c22.063 0 40-17.945 40-40s-17.938-40-40-40c-22.055 0-40 17.945-40 40s17.945 40 40 40zM335.991 147.994c0-44.11 35.891-80.001 80.001-80.001 44.118 0 80.001 35.891 80.001 80.001s-35.883 80.001-80.001 80.001c-44.11 0-80.001-35.891-80.001-80.001zM455.992 147.994c0-22.055-17.938-40-40-40-22.055 0-40 17.945-40 40s17.945 40 40 40c22.063 0 40-17.945 40-40zM876.581 769.795c0 47.586-69.235 159.064-83.118 180.923-3.672 5.781-10.039 9.281-16.883 9.281-6.852 0-13.219-3.5-16.883-9.281-12.133-19.102-66.501-106.602-80.055-160.134-125.704 51.641-256.729 50.235-371.784-4.602-114.399-54.524-206.658-160.587-239.346-294.119-2.633-10.734 3.938-21.555 14.664-24.18 1.602-0.391 3.203-0.578 4.773-0.578 9 0 17.18 6.117 19.414 15.25 28.414 116.079 109.806 216.095 217.705 267.526 109.102 51.993 234.463 50.969 354.089-2.625 6.273-27.149 23.719-50.461 47.719-64.227-11.774-42.852-20.945-107.891-26.156-186.298-2.117-31.828-3.547-65.618-4.25-100.602-75.946-43.578-125.962-126.501-119.696-225.541 2.375-37.422 5.961-93.977-52.961-145.337-42.086-36.696-104.032-46.782-161.65-26.328-143.017 50.758-246.478 180.83-263.596 331.378-1.242 10.977-11.172 18.852-22.125 17.617-10.977-1.25-18.86-11.156-17.617-22.133 19.203-168.947 134.142-309.252 289.963-364.558 71.235-25.289 148.368-12.281 201.314 33.875 73.797 64.336 69.11 138.29 66.586 178.025-4.664 73.805 27.5 136.243 79.305 174.954v-0.078c0-94.727 7.258-280.362 37.789-366.917 4.344-12.328 15.899-45.086 42.211-45.086 26.321 0 37.875 32.758 42.219 45.086 30.344 86.016 37.782 270.283 37.782 366.917 0 13.727-0.117 27.235-0.344 40.414 6.172 0.086 12.43 0.094 18.766-0.008 37.875-0.555 72.282 22.492 85.696 57.407 36.758 95.751-31.563 191.126-112.149 253.955 18.078 18.422 28.617 43.438 28.617 70.024zM776.58 901.656c28.852-48.844 60-109.852 60-131.86 0-34.727-28.852-60.766-61.258-60.040-32.235 0.727-58.743 27.031-58.743 60.040 0 22.008 31.141 83.016 60 131.86zM776.58 669.795c3.531 0 7.047 0.203 10.524 0.57 9.797-36.625 17.906-92.446 22.961-158.4-22.5-2.891-45.625-2.836-68.133 0.148 5.055 65.946 13.18 121.743 22.992 158.368 3.852-0.453 7.742-0.688 11.656-0.688zM775.994-16.633c-32.313 69.118-40 277.291-40 364.628 0 11.172 0.258 35.774 0.266 35.836 0.461 30.461 1.492 60.040 3.047 88.274 12.328-1.531 24.797-2.305 37.274-2.305 12.094 0 24.18 0.727 36.125 2.172 1.164-21.305 2.023-43.188 2.563-65.336 0.484-18.766 0.727-38.492 0.727-58.641 0-90.063-8.133-296.479-40-364.628zM922.769 460.152c-7.422-19.313-26.625-32.11-47.727-31.758-6.867 0.109-13.68 0.109-20.391 0.008-0.773 23.188-1.898 46.016-3.359 68.094-0.008 0.133-0.031 0.266-0.047 0.398-4.445 66.93-11.789 124.11-21.156 166.033 80.946-65.516 116.259-141.36 92.68-202.775zM95.989 407.996c0-11.047-8.953-20-20-20-11.039 0-20 8.953-20 20s8.961 20 20 20c11.047 0 20-8.953 20-20z" />
<glyph unicode="&#xe943;" glyph-name="money-bag" d="M972.138 97.91c-14.653 11.828-23.035 30.413-22.419 49.716 0.224 7.056 0.338 14.241 0.338 21.349 0 102.822-22.915 201.376-68.109 292.923-38.95 78.901-94.338 150.416-161.106 208.294 12.204 11.66 19.831 28.077 19.831 46.25 0 33.953-26.581 61.804-60.024 63.866l69.931 132.069c4.108 7.76 2.676 17.293-3.534 23.503-32.161 32.157-84.487 32.159-116.649 0-8.024-8.022-18.691-12.442-30.037-12.442-11.348 0-22.015 4.418-30.039 12.442-32.161 32.157-84.487 32.159-116.649 0-8.024-8.022-18.691-12.442-30.039-12.442-11.346 0-22.013 4.418-30.037 12.442-32.161 32.157-84.487 32.157-116.649 0-6.208-6.208-7.64-15.743-3.534-23.503l69.933-132.069c-33.443-2.062-60.026-29.911-60.026-63.866 0-18.173 7.626-34.589 19.833-46.252-66.769-57.88-122.157-129.393-161.108-208.294-45.194-91.548-68.109-190.101-68.109-292.923 0-7.070 0.116-14.253 0.34-21.349 0.614-19.305-7.768-37.889-22.419-49.716-22.909-18.491-35.513-47.102-33.717-76.539 2.792-45.776 39.416-82.403 85.191-85.199 24.931-1.514 48.782 6.896 67.141 23.705 13.969 12.79 34.063 17.621 53.744 12.935 93.76-22.331 190.581-33.653 287.779-33.653s194.020 11.322 287.779 33.653c19.689 4.686 39.778-0.146 53.744-12.935 16.949-15.515 41.434-23.793 64.271-23.793 1.904 0-1.92-0.118 0 0 45.776 2.796 85.271 39.512 88.063 85.289 1.798 29.439-10.808 58.050-33.713 76.539zM365.314 907.596c15.579-15.579 36.291-24.159 58.322-24.159s42.746 8.58 58.324 24.159c16.563 16.563 43.518 16.561 60.076 0 15.579-15.579 36.293-24.159 58.324-24.159s42.744 8.58 58.322 24.159c13.085 13.087 32.653 15.835 48.462 8.242l-71.691-135.391h-246.912l-71.693 135.391c15.813 7.59 35.383 4.84 48.464-8.242zM347.328 740.443h329.345c13.235 0 24.001-10.766 24.001-24.001s-10.766-24.001-24.001-24.001h-329.345c-13.235 0-24.001 10.766-24.001 24.001s10.766 24.001 24.001 24.001zM965.93 23.809c-1.538-25.211-22.491-46.168-47.704-47.708-14.023-0.854-27.401 3.862-37.691 13.283-23.767 21.757-57.418 30.111-90.028 22.343-90.726-21.609-184.429-32.565-278.509-32.565s-187.783 10.956-278.509 32.565c-32.615 7.766-66.261-0.584-90.028-22.343-10.29-9.42-23.687-14.137-37.691-13.283-25.209 1.54-46.164 22.495-47.702 47.708-1.024 16.785 5.87 32.447 18.913 42.974 24.353 19.655 38.289 50.352 37.279 82.115-0.212 6.674-0.32 13.431-0.32 20.079 0 188.735 83.879 364.572 230.371 483.541 1-0.046 334.371-0.046 335.369 0 146.492-118.967 230.371-294.804 230.371-483.541 0-6.688-0.108-13.443-0.318-20.077-1.012-31.761 12.923-62.46 37.277-82.117 13.047-10.528 19.941-26.193 18.919-42.974zM512 437.596c29.283 0 53.106-20.793 53.106-46.348 0-11.046 8.956-20.001 20.001-20.001s20.001 8.954 20.001 20.001c0 41.246-31.349 75.809-73.107 84.321v9.626c0 11.046-8.956 20.001-20.001 20.001s-20.001-8.954-20.001-20.001v-9.626c-41.756-8.512-73.107-43.076-73.107-84.321 0-47.614 41.768-86.349 93.108-86.349 29.283 0 53.106-20.793 53.106-46.348s-23.823-46.348-53.106-46.348-53.106 20.793-53.106 46.348c0 11.046-8.956 20.001-20.001 20.001s-20.001-8.954-20.001-20.001c0-41.246 31.349-75.809 73.107-84.321v-12.166c0-11.046 8.956-20.001 20.001-20.001s20.001 8.954 20.001 20.001v12.166c41.756 8.512 73.107 43.076 73.107 84.321 0 47.614-41.768 86.349-93.108 86.349-29.283 0-53.106 20.793-53.106 46.348s23.823 46.348 53.106 46.348z" />
<glyph unicode="&#xe944;" glyph-name="policy" d="M916.016 910.251h-662.154c-57.466 0-104.219-46.316-104.219-103.061l-4.267-583.061h-129.223c-9.158 0-16.154-8.097-16.154-17.255v-80.243c0-75.117 60.113-136.551 132.664-139.919v-0.964h557.603v1.085c4.146-0.17 6.656-1.085 9.506-1.085h0.397c77.377 0.453 139.749 63.522 139.344 140.899v509.984h168.332c9.158 0 16.154 8.291 16.154 17.441v147.231c0.105 59.838-48.146 108.518-107.984 108.947zM139.919 18.915h-0.113c-58.988 0-106.64 48.753-106.64 107.733v64.316h526.51v-64.040c-0.13-37.328 14.615-73.166 40.972-99.595 2.802-2.818 5.733-4.267 8.729-8.413zM806.348 126.664c0-58.996-47.19-107.749-106.202-107.749h-0.34c-59.304 0.429-107.101 48.696-106.964 108v79.96c0.049 9.287-7.296 16.931-16.583 17.255h-397.717l4.267 582.947c0 38.567 31.87 70.008 71.053 70.008h583.862c-18.899-20.729-31.377-46.955-31.377-76.227zM990.834 801.012v-131.215h-151.32v131.093c0 41.506 34.526 76.194 76.016 76.194h0.462c41.595-0.413 75.036-34.348 74.842-75.951zM389.401 502.073l85.498-58.453c5.579-3.846 12.955-3.846 18.534 0l85.239 58.437c29.611 20.202 51.482 62.437 51.482 98.251v118.267c0.178 6.251-3.271 12.049-8.842 14.891l-130.178 64.032c-4.567 2.267-9.927 2.267-14.494 0l-129.935-63.854c-5.571-2.842-9.012-8.64-8.826-14.891v-118.445c0-35.814 21.919-78.049 51.522-98.235zM371.044 708.405l112.972 55.741 112.972-55.895v-107.943c0-24.98-16.372-56.753-37.028-70.834l-76.138-52.073-75.838 52.065c-20.656 14.097-36.939 45.862-36.939 70.842zM455.968 575.271c3.093-3.158 7.32-4.947 11.741-4.972h0.040c4.405 0.016 8.623 1.781 11.725 4.907l65.968 65.992c6.486 6.478 6.486 16.988 0.008 23.466-6.47 6.486-16.98 6.486-23.457 0.008l-54.186-54.178-21.66 21.87c-6.453 6.51-16.955 6.559-23.466 0.105s-6.551-16.955-0.105-23.466zM690.267 396.178h-397.992c-9.158 0-16.583-7.425-16.583-16.583s7.425-16.583 16.583-16.583h397.992c9.158 0 16.583 7.425 16.583 16.583s-7.425 16.583-16.583 16.583zM690.267 319.482h-397.992c-9.158 0-16.583-7.425-16.583-16.583s7.425-16.583 16.583-16.583h397.992c9.158 0 16.583 7.425 16.583 16.583s-7.425 16.583-16.583 16.583z" />
<glyph unicode="&#xe945;" glyph-name="house-cleaning" d="M986.672 507.92l-234.672 210.432v33.648c0 26.464-21.536 48-48 48-11.632 0-22.176-4.32-30.496-11.232l-150.832 135.152c-6.080 5.456-15.28 5.456-21.36 0l-464-416c-4.944-4.432-6.64-11.44-4.272-17.632 2.384-6.208 8.32-10.288 14.96-10.288h32v-496c0-8.832 7.168-16 16-16h832c8.832 0 16 7.168 16 16v496h32c6.64 0 12.576 4.080 14.944 10.288 2.368 6.192 0.672 13.2-4.272 17.632zM934.192 512h-182.192v163.36zM800 160h-192v34.16c0 25.28 20.56 45.84 45.84 45.84h100.336c25.264 0 45.824-20.56 45.824-45.84zM688 752c0 8.816 7.184 16 16 16s16-7.184 16-16v-480h-32zM512 890.512l144.88-129.824c-0.528-2.816-0.88-5.712-0.88-8.688v-240h-566.192zM112 480h544v-208h-2.16c-42.928 0-77.84-34.912-77.84-77.84v-47.072l-58.832-147.088h-117.168v304c0 8.832-7.168 16-16 16h-192c-8.832 0-16-7.168-16-16v-304h-64zM208 0v288h160v-288zM797.12 0l-13.424 67.136-31.376-6.288 12.16-60.848h-44.48v64h-32v-64h-44.48l12.176 60.864-31.376 6.288-13.44-67.152h-59.248l51.2 128h202.336l51.2-128zM912 0h-21.168l-58.832 147.088v47.072c0 42.928-34.912 77.84-77.84 77.84h-2.16v208h160zM432 560h160c8.832 0 16 7.168 16 16v96c0 52.944-43.056 96-96 96s-96-43.056-96-96v-96c0-8.832 7.168-16 16-16zM448 640h48v-48h-48zM528 592v48h48v-48zM576 672h-48v61.728c27.52-7.152 48-32 48-61.728zM496 733.728v-61.728h-48c0 29.728 20.48 54.576 48 61.728zM240 160h32v-32h-32zM512 256h32c0 44.112 35.888 80 80 80v32c-44.112 0-80 35.888-80 80h-32c0-44.112-35.888-80-80-80v-32c44.112 0 80-35.888 80-80zM528 390.608c9.504-15.84 22.768-29.104 38.608-38.608-15.84-9.504-29.104-22.768-38.608-38.608-9.504 15.84-22.768 29.104-38.608 38.608 15.84 9.504 29.104 22.768 38.608 38.608z" />
<glyph unicode="&#xe946;" glyph-name="winner" d="M512 864c-8.837 0-16 7.163-16 16v0 32c0 8.837 7.163 16 16 16s16-7.163 16-16v0-32c0-8.837-7.163-16-16-16v0zM376 827.568c-0.005 0-0.010 0-0.016 0-5.891 0-11.038 3.184-13.816 7.925l-0.041 0.075-16 27.712c-1.315 2.273-2.091 5-2.091 7.908 0 8.837 7.163 16 16 16 5.854 0 10.973-3.143 13.762-7.834l0.041-0.074 16-27.712c1.348-2.295 2.144-5.054 2.144-8 0-8.831-7.154-15.991-15.983-16h-0.001zM648 827.568c-8.829 0.009-15.984 7.169-15.984 16 0 2.946 0.796 5.705 2.184 8.076l-0.041-0.075 16 27.712c2.83 4.765 7.949 7.908 13.803 7.908 8.837 0 16-7.163 16-16 0-2.908-0.776-5.635-2.132-7.985l0.041 0.077-16-27.712c-2.818-4.816-7.965-8-13.856-8-0.005 0-0.011 0-0.016 0h0.001zM955.6 586.128c0.356 2.581 0.56 5.562 0.56 8.592v0c-0.126 30.618-21.663 56.17-50.407 62.466l-0.425 0.078c-3.607 0.704-7.755 1.106-11.997 1.106-30.525 0-56.18-20.848-63.503-49.083l-0.1-0.456-55.616-196.416c-6.61-1.459-12.458-3.738-17.821-6.773l0.317 0.165-141.44-82.912c-42.804-25.544-71.054-71.572-71.168-124.207v-198.689c0-8.837 7.163-16 16-16s16 7.163 16 16v0 198.672c0.088 40.95 22.064 76.747 54.846 96.324l0.514 0.284 141.344 82.864c4.633 2.762 10.218 4.394 16.184 4.394 17.673 0 32-14.327 32-32 0-11.857-6.448-22.207-16.029-27.736l-0.155-0.082-91.696-52.944c-4.868-2.806-8.092-7.981-8.092-13.909 0-8.837 7.163-16 16-16 2.983 0 5.775 0.816 8.166 2.238l-0.074-0.041 91.696 52.944c19.235 11.2 31.958 31.722 31.958 55.216 0 8.048-1.493 15.747-4.217 22.836l0.147-0.436 43.92 163.648c3.705 15.030 17.069 26 32.995 26 1.834 0 3.635-0.146 5.39-0.426l-0.194 0.025c14.561-3.165 25.327-15.883 25.456-31.138v-0.014c0.001-0.071 0.001-0.154 0.001-0.238 0-2.879-0.386-5.669-1.108-8.319l0.051 0.221-69.584-259.712c-2.572-9.375-7.635-17.346-14.433-23.415l-0.047-0.041-108.176-96.16c-16.514-14.721-26.864-36.054-26.864-59.804 0-0.018 0-0.036 0-0.054v0.003-83.2c0-8.837 7.163-16 16-16s16 7.163 16 16v0 83.2c0.002 14.245 6.208 27.041 16.065 35.83l0.047 0.042 108.208 96.176c11.411 10.196 19.841 23.504 23.965 38.591l0.131 0.561 69.584 259.68c1.372 4.915 2.161 10.558 2.161 16.386 0 0.095 0 0.19-0.001 0.285v-0.015c-0.156 23.649-13.095 44.24-32.248 55.227l-0.312 0.165zM861.616 544.528l-37.84-140.928c-4.794 3.228-10.322 5.91-16.217 7.765l-0.455 0.123 53.472 188.8c3.773 15.031 17.166 25.985 33.117 25.985 1.802 0 3.572-0.14 5.299-0.409l-0.192 0.025c14.548-3.166 25.293-15.902 25.36-31.161v-0.231c-30.108-0.791-55.156-21.546-62.442-49.475l-0.102-0.461zM408.832 322.896l-141.536 82.96c-5.019 2.86-10.834 5.129-16.989 6.498l-0.419 0.078-55.552 196.208c-7.352 28.791-33.056 49.739-63.654 49.739-4.258 0-8.422-0.406-12.454-1.181l0.411 0.066c-29.152-6.392-50.671-31.937-50.8-62.53v-0.014c0-0.003 0-0.006 0-0.009 0-3.026 0.204-6.005 0.598-8.923l-0.038 0.34c-19.562-11.151-32.538-31.871-32.538-55.621 0-5.824 0.78-11.466 2.242-16.827l-0.104 0.447 69.584-259.728c4.274-15.618 12.707-28.898 24.033-39.003l0.079-0.069 108.192-96.16c9.905-8.832 16.112-21.63 16.112-35.877 0-0.032 0-0.064 0-0.096v0.005-83.2c0-8.837 7.163-16 16-16s16 7.163 16 16v0 83.2c-0.004 23.746-10.353 45.073-26.785 59.722l-0.079 0.070-108.16 96.16c-6.856 6.105-11.926 14.077-14.417 23.119l-0.079 0.337-69.6 259.808c-0.66 2.432-1.040 5.224-1.040 8.105 0 15.378 10.809 28.231 25.244 31.376l0.212 0.039c1.566 0.256 3.37 0.402 5.209 0.402 15.924 0 29.285-10.973 32.934-25.77l0.049-0.233 43.92-163.648c-2.577-6.653-4.070-14.352-4.070-22.4 0-23.494 12.723-44.016 31.655-55.053l0.303-0.163 91.696-52.944c2.317-1.381 5.109-2.197 8.092-2.197 8.837 0 16 7.163 16 16 0 5.928-3.224 11.104-8.015 13.868l-0.077 0.041-91.696 52.88c-9.654 5.607-16.042 15.898-16.042 27.681 0 17.62 14.284 31.904 31.904 31.904 0.718 0 1.431-0.024 2.138-0.070l-0.096 0.005h0.128c5.138-0.27 9.88-1.739 14.023-4.129l-0.151 0.081 141.44-82.912c33.296-19.861 55.272-55.658 55.36-96.595v-198.685c0-8.837 7.163-16 16-16s16 7.163 16 16v0 198.672c-0.114 52.652-28.364 98.68-70.508 123.859l-0.66 0.365zM200.224 403.616l-37.84 140.944c-7.359 28.399-32.405 49.166-62.426 49.95l-0.086 0.002v0.208c0.040 15.277 10.778 28.034 25.116 31.177l0.212 0.039c1.554 0.251 3.346 0.395 5.172 0.395 16.030 0 29.473-11.072 33.1-25.986l0.048-0.233 53.376-188.592c-6.35-1.976-11.878-4.664-16.899-8.048l0.227 0.144zM633.728 392.336c17.666 0.16 31.925 14.518 31.925 32.207 0 3.499-0.558 6.867-1.589 10.021l0.064-0.228-39.312 120.992 102.912 74.784c8.033 5.885 13.19 15.284 13.19 25.888 0 17.653-14.294 31.967-31.939 32h-127.235l-39.344 120.992c-4.33 12.888-16.3 22.008-30.4 22.008s-26.070-9.12-30.334-21.782l-0.066-0.226-39.344-120.992h-127.232c-17.669-0.006-31.99-14.33-31.99-32 0-10.604 5.157-20.003 13.101-25.825l0.090-0.063 102.912-74.784-39.312-120.992c-0.994-2.954-1.567-6.356-1.567-9.892 0-17.673 14.327-32 32-32 7.072 0 13.608 2.294 18.905 6.179l-0.089-0.063 102.928 74.768 102.928-74.768c5.189-3.867 11.72-6.2 18.794-6.224h0.006zM512 505.36c-7.074-0.004-13.61-2.302-18.905-6.19l0.089 0.062-102.912-74.784 39.312 120.992c0.992 2.952 1.565 6.351 1.565 9.883 0 10.606-5.16 20.007-13.107 25.83l-0.090 0.063-102.928 74.784h127.232c14.125 0.015 26.105 9.18 30.335 21.886l0.065 0.226 39.344 121.2v-0.208l39.312-120.992c4.298-12.942 16.294-22.111 30.432-22.112h127.232l-102.912-74.768c-8.046-5.884-13.214-15.291-13.214-25.905 0-3.534 0.573-6.934 1.631-10.113l-0.065 0.226 39.312-120.992-102.912 74.752c-5.203 3.837-11.739 6.146-18.813 6.16h-0.003zM240.736 746.144l27.696-16c2.317-1.381 5.109-2.197 8.092-2.197 8.837 0 16 7.163 16 16 0 5.928-3.224 11.104-8.015 13.868l-0.077 0.041-27.696 16c-2.273 1.315-5 2.091-7.908 2.091-8.837 0-16-7.163-16-16 0-5.854 3.143-10.973 7.834-13.762l0.074-0.041zM747.584 728c2.946 0 5.705 0.796 8.075 2.185l-0.075-0.041 27.696 16c4.765 2.83 7.908 7.949 7.908 13.803 0 8.837-7.163 16-16 16-2.908 0-5.635-0.776-7.985-2.132l0.077 0.041-27.696-16c-4.816-2.818-7.999-7.965-7.999-13.856 0-8.836 7.163-16 15.999-16v0z" />
</font>
</defs>
</svg>
